JavaBegin - Веб разработка (2015-2016)

Ответить на тему
 
Автор Сообщение

Yulya ®

JavaBegin | Веб разработка (2015-2016) PCRec [H.264] - Автор (режиссер): JavaBegin
Жанр: Программирование, Java
Описание:
Основы создания веб приложений на JavaEE. Без этого фундамента нельзя переходить к изучению других фреймворков: Spring Framework, Angular и пр.
Продолжительность: 56:39:48
Качество видео: PCRec
Видео: AVC/H.264, 1280x960-1840x1020, ~40-1343 Kbps
Аудио: AAC, 2 ch, 93-127 Kbps

Mediainfo:

Общее
Полное имя : .\2.webservices\2\2-Consorsiums.mp4
Формат : MPEG-4
Профиль формата : Base Media / Version 2
Идентификатор кодека : mp42 (isom/mp42)
Размер файла : 52,6 Мбайт
Продолжительность : 16 м. 6 с.
Режим общего битрейта : Переменный
Общий поток : 457 Кбит/сек
Название фильма : 2-Consorsiums
Дата кодирования : UTC 2014-01-27 16:39:18
Дата пометки : UTC 2014-01-27 16:39:18
Видео
Идентификатор : 1
Формат : AVC
Формат/Информация : Advanced Video Codec
Профиль формата : Baseline@L3.2
Настройки формата : 3 Ref Frames
Параметр CABAC формата : Нет
Параметр RefFrames формата : 3 кадра
Идентификатор кодека : avc1
Идентификатор кодека/Информация : Advanced Video Coding
Продолжительность : 16 м. 6 с.
Продолжительность оригинала : 16 м. 6 с.
Битрейт : 328 Кбит/сек
Ширина : 1280 пикселей
Высота : 960 пикселей
Соотношение сторон : 4:3
Режим частоты кадров : Переменный
Частота кадров : 30,000 кадров/сек
Минимальная частота кадров : 30,000 кадров/сек
Максимальная частота кадров : 30,030 кадров/сек
Стандарт вещания : NTSC
Цветовое пространство : YUV
Субдискретизация насыщенности : 4:2:0
Битовая глубина : 8 бит
Тип развёртки : Прогрессивная
Бит/(Пиксели*Кадры) : 0.009
Размер потока : 37,8 Мбайт (72%)
Размер потока оригинала : 37,8 Мбайт (72%)
Язык : English
Дата кодирования : UTC 2014-01-27 16:39:18
Дата пометки : UTC 2014-01-27 16:39:18
Цветовой диапазон : Limited
mdhd_Duration : 966800
Аудио
Идентификатор : 2
Формат : AAC
Формат/Информация : Advanced Audio Codec
Профиль формата : LC
Идентификатор кодека : mp4a-40-2
Продолжительность : 16 м. 6 с.
Продолжительность оригинала : 16 м. 6 с.
Вид битрейта : Переменный
Битрейт : 126 Кбит/сек
Максимальный битрейт : 174 Кбит/сек
Каналы : 2 канала
Расположение каналов : Front: L R
Частота : 44,1 КГц
Частота кадров : 43,066 кадра/сек (1024 SPF)
Метод сжатия : С потерями
Размер потока : 14,5 Мбайт (28%)
Размер потока оригинала : 14,5 Мбайт (28%)
Язык : English
Дата кодирования : UTC 2014-01-27 16:39:18
Дата пометки : UTC 2014-01-27 16:39:18
mdhd_Duration : 966833
Общее
Полное имя : .\5.html5\video\1-Введение в HTML5.mp4
Формат : MPEG-4
Профиль формата : Base Media / Version 2
Идентификатор кодека : mp42 (isom/mp42)
Размер файла : 28,2 Мбайт
Продолжительность : 6 м. 36 с.
Режим общего битрейта : Переменный
Общий поток : 596 Кбит/сек
Дата кодирования : UTC 2015-07-30 10:47:58
Дата пометки : UTC 2015-07-30 10:47:58
Видео
Идентификатор : 1
Формат : AVC
Формат/Информация : Advanced Video Codec
Профиль формата : Baseline@L4
Настройки формата : 3 Ref Frames
Параметр CABAC формата : Нет
Параметр RefFrames формата : 3 кадра
Идентификатор кодека : avc1
Идентификатор кодека/Информация : Advanced Video Coding
Продолжительность : 6 м. 36 с.
Продолжительность оригинала : 6 м. 36 с.
Битрейт : 468 Кбит/сек
Ширина : 1796 пикселей
Высота : 1012 пикселей
Соотношение сторон : 16:9
Режим частоты кадров : Переменный
Частота кадров : 30,000 кадров/сек
Минимальная частота кадров : 30,000 кадров/сек
Максимальная частота кадров : 30,030 кадров/сек
Стандарт вещания : NTSC
Цветовое пространство : YUV
Субдискретизация насыщенности : 4:2:0
Битовая глубина : 8 бит
Тип развёртки : Прогрессивная
Бит/(Пиксели*Кадры) : 0.009
Размер потока : 22,1 Мбайт (78%)
Размер потока оригинала : 22,1 Мбайт (78%)
Язык : English
Дата кодирования : UTC 2015-07-30 10:47:58
Дата пометки : UTC 2015-07-30 10:47:58
Цветовой диапазон : Limited
mdhd_Duration : 396567
Аудио
Идентификатор : 2
Формат : AAC
Формат/Информация : Advanced Audio Codec
Профиль формата : LC
Идентификатор кодека : mp4a-40-2
Продолжительность : 6 м. 36 с.
Продолжительность оригинала : 6 м. 36 с.
Вид битрейта : Переменный
Битрейт : 126 Кбит/сек
Максимальный битрейт : 166 Кбит/сек
Каналы : 2 канала
Расположение каналов : Front: L R
Частота : 44,1 КГц
Частота кадров : 43,066 кадра/сек (1024 SPF)
Метод сжатия : С потерями
Размер потока : 5,94 Мбайт (21%)
Размер потока оригинала : 5,94 Мбайт (21%)
Язык : English
Дата кодирования : UTC 2015-07-30 10:47:58
Дата пометки : UTC 2015-07-30 10:47:58
mdhd_Duration : 396597
Общее
Полное имя : .\1.library\lessons\39-Redaktirovanie_dannih\video.mp4
Формат : MPEG-4
Профиль формата : Base Media / Version 2
Идентификатор кодека : mp42 (isom/mp42)
Размер файла : 62,8 Мбайт
Продолжительность : 22 м. 33 с.
Режим общего битрейта : Переменный
Общий поток : 389 Кбит/сек
Дата кодирования : UTC 2013-10-20 11:51:21
Дата пометки : UTC 2013-10-20 11:51:21
Видео
Идентификатор : 1
Формат : AVC
Формат/Информация : Advanced Video Codec
Профиль формата : Baseline@L4
Настройки формата : 3 Ref Frames
Параметр CABAC формата : Нет
Параметр RefFrames формата : 3 кадра
Идентификатор кодека : avc1
Идентификатор кодека/Информация : Advanced Video Coding
Продолжительность : 22 м. 33 с.
Продолжительность оригинала : 22 м. 33 с.
Битрейт : 293 Кбит/сек
Ширина : 1824 пикселя
Высота : 1016 пикселей
Соотношение сторон : 16:9
Режим частоты кадров : Переменный
Частота кадров : 30,000 кадров/сек
Минимальная частота кадров : 30,000 кадров/сек
Максимальная частота кадров : 30,030 кадров/сек
Стандарт вещания : NTSC
Цветовое пространство : YUV
Субдискретизация насыщенности : 4:2:0
Битовая глубина : 8 бит
Тип развёртки : Прогрессивная
Бит/(Пиксели*Кадры) : 0.005
Размер потока : 47,2 Мбайт (75%)
Размер потока оригинала : 47,2 Мбайт (75%)
Язык : English
Дата кодирования : UTC 2013-10-20 11:51:22
Дата пометки : UTC 2013-10-20 11:51:22
Цветовой диапазон : Limited
mdhd_Duration : 1353133
Аудио
Идентификатор : 2
Формат : AAC
Формат/Информация : Advanced Audio Codec
Профиль формата : LC
Идентификатор кодека : mp4a-40-2
Продолжительность : 22 м. 33 с.
Продолжительность оригинала : 22 м. 33 с.
Вид битрейта : Переменный
Битрейт : 93,6 Кбит/сек
Максимальный битрейт : 199 Кбит/сек
Каналы : 2 канала
Расположение каналов : Front: L R
Частота : 44,1 КГц
Частота кадров : 43,066 кадра/сек (1024 SPF)
Метод сжатия : С потерями
Размер потока : 15,1 Мбайт (24%)
Размер потока оригинала : 15,1 Мбайт (24%)
Язык : English
Дата кодирования : UTC 2013-10-20 11:51:22
Дата пометки : UTC 2013-10-20 11:51:22
mdhd_Duration : 1353166
Общее
Полное имя : .\2.webservices\1\1-Intro.mp4
Формат : MPEG-4
Профиль формата : Base Media / Version 2
Идентификатор кодека : mp42 (isom/mp42)
Размер файла : 29,0 Мбайт
Продолжительность : 20 м. 44 с.
Режим общего битрейта : Переменный
Общий поток : 195 Кбит/сек
Дата кодирования : UTC 2014-01-16 04:45:33
Дата пометки : UTC 2014-01-16 04:45:33
Видео
Идентификатор : 1
Формат : AVC
Формат/Информация : Advanced Video Codec
Профиль формата : Baseline@L4
Настройки формата : 3 Ref Frames
Параметр CABAC формата : Нет
Параметр RefFrames формата : 3 кадра
Идентификатор кодека : avc1
Идентификатор кодека/Информация : Advanced Video Coding
Продолжительность : 20 м. 44 с.
Продолжительность оригинала : 20 м. 44 с.
Битрейт : 98,9 Кбит/сек
Ширина : 1840 пикселей
Высота : 1020 пикселей
Соотношение сторон : 16:9
Режим частоты кадров : Переменный
Частота кадров : 30,000 кадров/сек
Минимальная частота кадров : 30,000 кадров/сек
Максимальная частота кадров : 30,030 кадров/сек
Стандарт вещания : NTSC
Цветовое пространство : YUV
Субдискретизация насыщенности : 4:2:0
Битовая глубина : 8 бит
Тип развёртки : Прогрессивная
Бит/(Пиксели*Кадры) : 0.002
Размер потока : 14,7 Мбайт (51%)
Размер потока оригинала : 14,7 Мбайт (51%)
Язык : English
Дата кодирования : UTC 2014-01-16 04:45:33
Дата пометки : UTC 2014-01-16 04:45:33
Цветовой диапазон : Limited
mdhd_Duration : 1244700
Аудио
Идентификатор : 2
Формат : AAC
Формат/Информация : Advanced Audio Codec
Профиль формата : LC
Идентификатор кодека : mp4a-40-2
Продолжительность : 20 м. 44 с.
Продолжительность оригинала : 20 м. 44 с.
Вид битрейта : Переменный
Битрейт : 93,6 Кбит/сек
Максимальный битрейт : 124 Кбит/сек
Каналы : 2 канала
Расположение каналов : Front: L R
Частота : 44,1 КГц
Частота кадров : 43,066 кадра/сек (1024 SPF)
Метод сжатия : С потерями
Размер потока : 13,9 Мбайт (48%)
Размер потока оригинала : 13,9 Мбайт (48%)
Язык : English
Дата кодирования : UTC 2014-01-16 04:45:33
Дата пометки : UTC 2014-01-16 04:45:33
mdhd_Duration : 1244729

Дополнительная информация:

В раздаче имеются архивы! В них содержится дополнительные материалы.

Раздача ведётся путём добавления новых файлов:

Раздача ведётся путём добавления новых файлов; при каждом добавлении создаётся новый торрент. Чтобы начать докачку новых файлов, пользователям необходимо сделать следующее:
(1) остановить скачивание,
(2) удалить старый торрент у себя из клиента (имеющиеся файлы удалять не надо),
(3) скачать новый торрент и запустить его у себя в клиенте вместо старого, при этом указать клиенту путь в старую папку, куда и должно происходить скачивание новых файлов.
Ваш клиент при этом должен произвести хеширование (проверку) старой папки (если не производит сам - помогите ему сделать это), и будет докачивать только те файлы, которых у вас ещё нет. Старые файлы при этом не удаляются, а продолжают раздаваться!
Eсли вы уже удалили старые файлы, то предотвратить повторную закачку старых файлов можно, отжав галочку в соответствующих местах при запуске нового торрента. По возможности, желательно не удалять старые файлы как можно дольше, чтобы релизёр не только продолжал раздавать старые файлы, а смог сконцентрироваться на новых.
Скриншоты:
Скачать .torrent

Для того, чтобы скачать торрент-файл

JavaBegin - Веб разработка (2015-2016)

с нашего сайта, Вам необходимо Войти на сайт под своим логином! Если у Вас ещё нет логина, тогда Вам нужно сначала Зарегистрироваться!

Как скачивать? · Что такое торрент? · Рейтинг и ограничения

Показать сообщения:    
Ответить на тему

JavaBegin - Веб разработка (2015-2016) скачать торрент (torrent), видеоуроки, тренинги, обучающее видео и видеокурсы

Текущее время: Сегодня 13:12

Часовой пояс: GMT + 4



Вы не можете начинать темы
Вы не можете отвечать на сообщения
Вы не можете редактировать свои сообщения
Вы не можете удалять свои сообщения
Вы не можете голосовать в опросах
Вы не можете прикреплять файлы к сообщениям
Вы не можете скачивать файлы