Екатерина Кононова - Видеокурс по личному брендингу (2016)

Ответить на тему
 
Автор Сообщение

Yulya ®

Екатерина Кононова | Видеокурс по личному брендингу (2016) WEB-DLRip [H.264]- Автор (режиссер): Екатерина Кононова
Жанр: Бизнес, продвижение
Описание:
Полный доступ к материалам онлайн-марафона (15 авторских вебинаров по актуальным темам).
Продолжительность: 47:13:13
Качество видео: WEB-DLRip
Видео: AVC/H.264, 640х360, ~1309 Kbps
Аудио: AAC, 2 ch, 96 Kbps

Mediainfo:

Общее
Полное имя : I:\Бизнес\Позиционирование\Видеокурс по личному брендингу (2016)\Базовые правила личного брендинга\Заставка к курсу.mp4
Формат : MPEG-4
Профиль формата : Base Media / Version 2
Идентификатор кодека : mp42 (isom/mp42)
Размер файла : 2,63 Мбайт
Продолжительность : 53 с. 730 мс.
Режим общего битрейта : Переменный
Общий поток : 410 Кбит/сек
Дата кодирования : UTC 2015-06-10 17:40:08
Дата пометки : UTC 2015-06-10 17:40:08
gsst : 0
gstd : 53776
Видео
Идентификатор : 1
Формат : AVC
Формат/Информация : Advanced Video Codec
Профиль формата : Baseline@L3
Настройки формата : 1 Ref Frames
Параметр CABAC формата : Нет
Параметр RefFrames формата : 1 кадр
Идентификатор кодека : avc1
Идентификатор кодека/Информация : Advanced Video Coding
Продолжительность : 53 с. 720 мс.
Битрейт : 311 Кбит/сек
Максимальный битрейт : 905 Кбит/сек
Ширина : 640 пикселей
Высота : 360 пикселей
Соотношение сторон : 16:9
Режим частоты кадров : Постоянный
Частота кадров : 25,000 кадров/сек
Цветовое пространство : YUV
Субдискретизация насыщенности : 4:2:0
Битовая глубина : 8 бит
Тип развёртки : Прогрессивная
Бит/(Пиксели*Кадры) : 0.054
Размер потока : 1,99 Мбайт (76%)
Дата пометки : UTC 2015-06-10 17:40:08
Аудио
Идентификатор : 2
Формат : AAC
Формат/Информация : Advanced Audio Codec
Профиль формата : LC
Идентификатор кодека : mp4a-40-2
Продолжительность : 53 с. 730 мс.
Вид битрейта : Переменный
Битрейт : 96,0 Кбит/сек
Максимальный битрейт : 102 Кбит/сек
Каналы : 2 канала
Расположение каналов : Front: L R
Частота : 44,1 КГц
Частота кадров : 43,066 кадра/сек (1024 SPF)
Метод сжатия : С потерями
Размер потока : 630 Кбайт (23%)
Заголовок : IsoMedia File Produced by Google, 5-11-2011
Язык : English
Дата кодирования : UTC 2015-06-10 17:40:08
Дата пометки : UTC 2015-06-10 17:40:08

Продолжение описания:

Техника речи и публичная коммуникация
Брендинг компаний и брендинг личности
Фотобрендинг
Сторителлинг
Создание собственного стиля
Карта базового аудита. Часть 1
Карта базового аудита. Часть №2.
Вебинар формата FAQ
Работа с базой подписки
Онлайн-коммуникация
Взаимодействие со СМИ
Психологические особенности личного бренда.
Монетизация собственных продуктов
Нетворкинг
Основные положения личного брендинга и Я-Концепция.
Вебинар «Самопрезентация и подготовка к публичным выступлениям»
Вебинар «Правила взаимодействия со СМИ»
Вебинар «НЛП в личном брендинге»
Вебинар «Контент-маркетинг и копирайтинг»
Скриншоты:
Скачать .torrent

Для того, чтобы скачать торрент-файл

Екатерина Кононова - Видеокурс по личному брендингу (2016)

с нашего сайта, Вам необходимо Войти на сайт под своим логином! Если у Вас ещё нет логина, тогда Вам нужно сначала Зарегистрироваться!

Как скачивать? · Что такое торрент? · Рейтинг и ограничения

Показать сообщения:    
Ответить на тему

Екатерина Кононова - Видеокурс по личному брендингу (2016) скачать торрент (torrent), видеоуроки, тренинги, обучающее видео и видеокурсы

Текущее время: Сегодня 03:48

Часовой пояс: GMT + 4



Вы не можете начинать темы
Вы не можете отвечать на сообщения
Вы не можете редактировать свои сообщения
Вы не можете удалять свои сообщения
Вы не можете голосовать в опросах
Вы не можете прикреплять файлы к сообщениям
Вы не можете скачивать файлы