javascript.ru - Курс по React.JS (2018)

Ответить на тему
 
Автор Сообщение

Yulya ®

javascript.ru | Курс по React.JS (2018) PCRec [H.264] - Автор (режиссер): Роман Якобчук
Производство: javascript.ru
Жанр: Программирование, JavaScript
Описание:
В этом курсе мы с вами шаг за шагом пройдем от знакомства с основными идеями до использования самых новых инструментов и инфраструктуры React, на практике будем развивать одностраничное приложение. Начнем с построения простых компонентов, научимся тестировать компоненты, поговорим про системы сборки и особенности работы с ES2017 синтаксисом.
Продолжительность: 13:20:10
Качество видео: PCRec
Видео: AVC/H.264, 1728x1080-1920x1200, ~103-631 Kbps
Аудио: AAC, 1-2 ch, 65-178 Kbps

Mediainfo:

Общее
Полное имя : .\Допы\connect_screencast.mp4
Формат : MPEG-4
Профиль формата : Base Media / Version 2
Идентификатор кодека : mp42 (isom/iso2/avc1/mp41)
Размер файла : 37,8 Мбайт
Продолжительность : 30 м. 15 с.
Режим общего битрейта : Переменный
Общий поток : 175 Кбит/сек
Дата кодирования : UTC 2017-02-13 14:19:57
Дата пометки : UTC 2017-02-13 14:19:57
Программа кодирования : HandBrake 0.10.2 2015060900
Видео
Идентификатор : 1
Формат : AVC
Формат/Информация : Advanced Video Codec
Профиль формата : High@L4
Настройки формата : CABAC / 4 Ref Frames
Параметр CABAC формата : Да
Параметр RefFrames формата : 4 кадра
Идентификатор кодека : avc1
Идентификатор кодека/Информация : Advanced Video Coding
Продолжительность : 30 м. 15 с.
Битрейт : 104 Кбит/сек
Ширина : 1728 пикселей
Высота : 1080 пикселей
Соотношение сторон : 16:10
Режим частоты кадров : Постоянный
Частота кадров : 15,000 кадров/сек
Цветовое пространство : YUV
Субдискретизация насыщенности : 4:2:0
Битовая глубина : 8 бит
Тип развёртки : Прогрессивная
Бит/(Пиксели*Кадры) : 0.004
Размер потока : 22,5 Мбайт (59%)
Библиотека кодирования : x264 core 142 r2479 dd79a61
Настройки программы : cabac=1 / ref=1 / deblock=1:0:0 / analyse=0x3:0x113 / me=hex / subme=2 / psy=1 / psy_rd=1.00:0.00 / mixed_ref=0 / me_range=16 / chroma_me=1 / trellis=0 / 8x8dct=1 / cqm=0 / deadzone=21,11 / fast_pskip=1 / chroma_qp_offset=0 / threads=12 / lookahead_threads=4 / sliced_threads=0 / nr=0 / decimate=1 / interlaced=0 / bluray_compat=0 / constrained_intra=0 / bframes=3 / b_pyramid=2 / b_adapt=1 / b_bias=0 / direct=1 / weightb=1 / open_gop=0 / weightp=1 / keyint=150 / keyint_min=15 / scenecut=40 / intra_refresh=0 / rc_lookahead=10 / rc=crf / mbtree=1 / crf=27.0 / qcomp=0.60 / qpmin=0 / qpmax=69 / qpstep=4 / ip_ratio=1.40 / aq=1:1.00
Дата кодирования : UTC 2017-02-13 14:19:57
Дата пометки : UTC 2017-02-13 14:19:57
Цветовой диапазон : Limited
Основные цвета : BT.709
Характеристики трансфера : BT.709
Коэффициенты матрицы : BT.709
Codec configuration box : avcC
Аудио
Идентификатор : 2
Формат : AAC LC
Формат/Информация : Advanced Audio Codec Low Complexity
Идентификатор кодека : mp4a-40-2
Продолжительность : 30 м. 15 с.
Вид битрейта : Переменный
Битрейт : 66,2 Кбит/сек
Каналы : 1 канал
Channel layout : C
Частота : 48,0 КГц
Частота кадров : 46,875 кадров/сек (1024 SPF)
Метод сжатия : С потерями
Размер потока : 14,3 Мбайт (38%)
Заголовок : Roman Iakobchuk / Roman Iakobchuk
Язык : English
Default : Да
AlternateGroup/String : 1
Дата кодирования : UTC 2017-02-13 14:19:57
Дата пометки : UTC 2017-02-13 14:19:57
Общее
Полное имя : .\Занятие 1.mp4
Формат : MPEG-4
Профиль формата : Base Media
Идентификатор кодека : isom (isom/mp42)
Размер файла : 533 Мбайт
Продолжительность : 1 ч. 38 м.
Режим общего битрейта : Переменный
Общий поток : 754 Кбит/сек
Дата кодирования : UTC 2018-09-13 18:54:48
Дата пометки : UTC 2018-09-13 18:54:48
Программа кодирования : Bandicam 4.1.4.1413 / GDI / Nvidia NVENC
Видео
Идентификатор : 1
Формат : AVC
Формат/Информация : Advanced Video Codec
Профиль формата : High@L5
Настройки формата : CABAC / 1 Ref Frames
Параметр CABAC формата : Да
Параметр RefFrames формата : 1 кадр
Идентификатор кодека : avc1
Идентификатор кодека/Информация : Advanced Video Coding
Продолжительность : 1 ч. 38 м.
Битрейт : 568 Кбит/сек
Ширина : 1920 пикселей
Высота : 1200 пикселей
Соотношение сторон : 16:10
Режим частоты кадров : Переменный
Частота кадров : 28,816 кадров/сек
Минимальная частота кадров : 14,993 кадров/сек
Максимальная частота кадров : 30,030 кадров/сек
Частота кадров в оригинале : 30,000 кадров/сек
Цветовое пространство : YUV
Субдискретизация насыщенности : 4:2:0
Битовая глубина : 8 бит
Тип развёртки : Прогрессивная
Бит/(Пиксели*Кадры) : 0.009
Размер потока : 402 Мбайт (75%)
Язык : English
Дата кодирования : UTC 2018-09-13 18:54:48
Дата пометки : UTC 2018-09-13 18:54:48
Codec configuration box : avcC
Аудио
Идентификатор : 2
Формат : AAC LC
Формат/Информация : Advanced Audio Codec Low Complexity
Идентификатор кодека : mp4a-40-2
Продолжительность : 1 ч. 38 м.
Продолжительность оригинала : 1 ч. 38 м.
Вид битрейта : Переменный
Битрейт : 178 Кбит/сек
Каналы : 2 канала
Channel layout : L R
Частота : 48,0 КГц
Частота кадров : 46,875 кадров/сек (1024 SPF)
Метод сжатия : С потерями
Размер потока : 126 Мбайт (24%)
Размер потока оригинала : 126 Мбайт (24%)
Язык : English
Дата кодирования : UTC 2018-09-13 18:54:48
Дата пометки : UTC 2018-09-13 18:54:48
mdhd_Duration : 5927996

Дополнительная информация:

В раздаче имеются архивы! В них содержится дополнительные материалы.
Скриншоты:
Скачать .torrent

Для того, чтобы скачать торрент-файл

javascript.ru - Курс по React.JS (2018)

с нашего сайта, Вам необходимо Войти на сайт под своим логином! Если у Вас ещё нет логина, тогда Вам нужно сначала Зарегистрироваться!

Как скачивать? · Что такое торрент? · Рейтинг и ограничения

Показать сообщения:    
Ответить на тему

javascript.ru - Курс по React.JS (2018) скачать торрент (torrent), видеоуроки, тренинги, обучающее видео и видеокурсы

Текущее время: Сегодня 14:34

Часовой пояс: GMT + 4



Вы не можете начинать темы
Вы не можете отвечать на сообщения
Вы не можете редактировать свои сообщения
Вы не можете удалять свои сообщения
Вы не можете голосовать в опросах
Вы не можете прикреплять файлы к сообщениям
Вы не можете скачивать файлы