ProfIT - PhpStorm для самых маленьких (2018)

Ответить на тему
 
Автор Сообщение

Yulya ®

ProfIT | PhpStorm для самых маленьких (2018) PCRec [H.264/720p-LQ] - Автор (режиссер): Дмитрий Макаров
Производство: ProfIT
Жанр: Программирование
Описание:
На вебинаре будет показаны многие возможности самой популярной IDE для PHP. Вы научитесь эффективно использовать этот мощный инструмент, поймете, чем он так удобен и, самое главное, поймете как сделать его наиболее удобным именно для Вас.
Продолжительность: 02:44:16
Качество видео: PCRec
Видео: AVC/H.264, 1152x720, ~291 Kbps
Аудио: AAC, 2 ch, 137 Kbps

Mediainfo:

Общее
Полное имя : .\30.08.2018 PhpStrom для самых маленьких.mp4
Формат : MPEG-4
Профиль формата : Base Media / Version 2
Идентификатор кодека : mp42 (mp42/mp41/isom/avc1)
Размер файла : 512 Мбайт
Продолжительность : 2 ч. 44 м.
Режим общего битрейта : Переменный
Общий поток : 436 Кбит/сек
Дата кодирования : UTC 2018-09-02 11:06:52
Дата пометки : UTC 2018-09-02 11:06:52
Видео
Идентификатор : 1
Формат : AVC
Формат/Информация : Advanced Video Codec
Профиль формата : High@L3.2
Настройки формата : CABAC / 5 Ref Frames
Параметр CABAC формата : Да
Параметр RefFrames формата : 5 кадров
Идентификатор кодека : avc1
Идентификатор кодека/Информация : Advanced Video Coding
Продолжительность : 2 ч. 44 м.
Битрейт : 291 Кбит/сек
Ширина : 1152 пикселя
Высота : 720 пикселей
Соотношение сторон : 16:10
Режим частоты кадров : Постоянный
Частота кадров : 59,940 (60000/1001) кадров/сек
Цветовое пространство : YUV
Субдискретизация насыщенности : 4:2:0
Битовая глубина : 8 бит
Тип развёртки : Прогрессивная
Бит/(Пиксели*Кадры) : 0.006
Размер потока : 342 Мбайт (67%)
Библиотека кодирования : x264 core 157 r10M 303c484
Настройки программы : cabac=1 / ref=5 / deblock=1:0:0 / analyse=0x3:0x113 / me=hex / subme=8 / psy=1 / psy_rd=1.00:0.00 / mixed_ref=1 / me_range=16 / chroma_me=1 / trellis=2 / 8x8dct=1 / cqm=0 / deadzone=21,11 / fast_pskip=1 / chroma_qp_offset=-2 / threads=22 / lookahead_threads=3 / sliced_threads=0 / nr=0 / decimate=1 / interlaced=0 / bluray_compat=0 / stitchable=1 / constrained_intra=0 / bframes=3 / b_pyramid=2 / b_adapt=2 / b_bias=0 / direct=3 / weightb=1 / open_gop=0 / weightp=2 / keyint=infinite / keyint_min=59 / scenecut=40 / intra_refresh=0 / rc_lookahead=50 / rc=crf / mbtree=1 / crf=20.0 / qcomp=0.60 / qpmin=5 / qpmax=69 / qpstep=4 / vbv_maxrate=2750 / vbv_bufsize=7500 / crf_max=0.0 / nal_hrd=none / filler=0 / ip_ratio=1.40 / aq=1:1.00
Дата кодирования : UTC 2018-09-02 11:06:52
Дата пометки : UTC 2018-09-02 11:06:52
Цветовой диапазон : Limited
Основные цвета : BT.709
Характеристики трансфера : BT.709
Коэффициенты матрицы : BT.709
Codec configuration box : avcC
Аудио
Идентификатор : 2
Формат : AAC LC
Формат/Информация : Advanced Audio Codec Low Complexity
Идентификатор кодека : mp4a-40-2
Продолжительность : 2 ч. 44 м.
Вид битрейта : Переменный
Битрейт : 137 Кбит/сек
Каналы : 2 канала
Channel layout : L R
Частота : 48,0 КГц
Частота кадров : 46,875 кадров/сек (1024 SPF)
Метод сжатия : С потерями
Размер потока : 161 Мбайт (31%)
Дата кодирования : UTC 2018-09-02 11:06:52
Дата пометки : UTC 2018-09-02 11:06:52
Скриншоты:
Скачать .torrent

Для того, чтобы скачать торрент-файл

ProfIT - PhpStorm для самых маленьких (2018)

с нашего сайта, Вам необходимо Войти на сайт под своим логином! Если у Вас ещё нет логина, тогда Вам нужно сначала Зарегистрироваться!

Как скачивать? · Что такое торрент? · Рейтинг и ограничения

Показать сообщения:    
Ответить на тему

ProfIT - PhpStorm для самых маленьких (2018) скачать торрент (torrent), видеоуроки, тренинги, обучающее видео и видеокурсы

Текущее время: Сегодня 14:19

Часовой пояс: GMT + 4



Вы не можете начинать темы
Вы не можете отвечать на сообщения
Вы не можете редактировать свои сообщения
Вы не можете удалять свои сообщения
Вы не можете голосовать в опросах
Вы не можете прикреплять файлы к сообщениям
Вы не можете скачивать файлы