Дмитрий Елисеев - Мастер-класс по Apache Kafka и RabbitMQ (2018)

Ответить на тему
 
Автор Сообщение

Yulya ®

Дмитрий Елисеев | Мастер-класс по Apache Kafka и RabbitMQ (2018) PCRec [H.264/720p-LQ] - Автор (режиссер): Дмитрий Елисеев
Жанр: Программирование, PHP
Описание:
Небольшой мастер-класс по взаимодействию микросервисов посредством сообщений через брокеры очередей Apache Kafka и RabbitMQ.
Продолжительность: 16:35:17
Качество видео: PCRec
Видео: AVC/H.264, 1280x720, ~180-227 Kbps
Аудио: AAC, 2 ch, 87-88 Kbps

Mediainfo:

Общее
Полное имя : .\Сайт_с_RabbitMQ_13.10.2018_19-09-11.mp4
Формат : MPEG-4
Профиль формата : Base Media
Идентификатор кодека : isom (isom/iso2/avc1/mp41)
Размер файла : 719 Мбайт
Продолжительность : 6 ч. 6 м.
Общий поток : 274 Кбит/сек
Программа кодирования : Lavf57.25.100
Видео
Идентификатор : 1
Формат : AVC
Формат/Информация : Advanced Video Codec
Профиль формата : Baseline@L3.1
Настройки формата : 1 Ref Frames
Параметр CABAC формата : Нет
Параметр RefFrames формата : 1 кадр
Идентификатор кодека : avc1
Идентификатор кодека/Информация : Advanced Video Coding
Продолжительность : 6 ч. 6 м.
Битрейт : 181 Кбит/сек
Ширина : 1280 пикселей
Высота : 720 пикселей
Соотношение сторон : 16:9
Режим частоты кадров : Постоянный
Частота кадров : 25,000 кадров/сек
Цветовое пространство : YUV
Субдискретизация насыщенности : 4:2:0
Битовая глубина : 8 бит
Тип развёртки : Прогрессивная
Бит/(Пиксели*Кадры) : 0.008
Размер потока : 474 Мбайт (66%)
Цветовой диапазон : Full
Аудио
Идентификатор : 2
Формат : AAC
Формат/Информация : Advanced Audio Codec
Профиль формата : LC
Идентификатор кодека : mp4a-40-2
Продолжительность : 6 ч. 6 м.
Вид битрейта : Постоянный
Битрейт : 88,7 Кбит/сек
Каналы : 2 канала
Channel(s)_Original : 1 канал
Расположение каналов : Front: C
Частота : 48,0 КГц
Частота кадров : 46,875 кадров/сек (1024 SPF)
Метод сжатия : С потерями
Размер потока : 233 Мбайт (32%)
Default : Да
AlternateGroup/String : 1

Дополнительная информация:

В раздаче имеются архивы! В них содержится исходники.

Программа:

Придумаем задание
Развернём Docker
Создадим SPA-фронтенд на VueJS
Напишем бэкенд с JSON API
Прикрутим WebSocket-уведомления
Попробуем поработать синхронно
Найдём проблемы сильной связанности
Перейдём на шины сообщений
Найдём проблемы производительности
Вынесем тяжёлые задачи в микросервисы
Оформим сложные процессы в саги
Поговорим о прекрасном...
Скриншоты:
Скачать .torrent

Для того, чтобы скачать торрент-файл

Дмитрий Елисеев - Мастер-класс по Apache Kafka и RabbitMQ (2018)

с нашего сайта, Вам необходимо Войти на сайт под своим логином! Если у Вас ещё нет логина, тогда Вам нужно сначала Зарегистрироваться!

Как скачивать? · Что такое торрент? · Рейтинг и ограничения

Показать сообщения:    
Ответить на тему

Дмитрий Елисеев - Мастер-класс по Apache Kafka и RabbitMQ (2018) скачать торрент (torrent), видеоуроки, тренинги, обучающее видео и видеокурсы

Текущее время: Сегодня 14:34

Часовой пояс: GMT + 4



Вы не можете начинать темы
Вы не можете отвечать на сообщения
Вы не можете редактировать свои сообщения
Вы не можете удалять свои сообщения
Вы не можете голосовать в опросах
Вы не можете прикреплять файлы к сообщениям
Вы не можете скачивать файлы