Максим Темченко - Финансовая перезагрузка (2018)

Ответить на тему
 
Автор Сообщение

Yulya ®

Максим Темченко | Финансовая перезагрузка (2018) WEBRip [H.264/720-LQ]- Автор (режиссер): Максим Темченко
Жанр: Видеокурсы
Сайт автора: https://fin-1.com/finrestart
Описание:
Курс Максима Темченко создан для предпринимателей и людей, мечтающих выйти на новый уровень дохода, личностного профессионального роста и хотят полностью развить финансовый интеллект.
Пошаговая программа, способная поменять ваше видение на сферы бизнеса и улучшить показатели своего предприятия в самые короткие сроки. Вы подробно разберете две основные финансовые модели, заработаете, сохраните и приумножите капитал. Начнете менять свое мышление и привычки.
Продолжительность: 09:35:02
Качество видео: WEBRip
Видео: AVC/H.264, 1280x720, ~413-1428 Kbps
Аудио: AAC, 2 ch, 44-48 kHz

Mediainfo:

General
Format : MPEG-4
Format profile : Base Media / Version 2
Codec ID : mp42
File size : 610 MiB
Duration : 1h 33mn
Overall bit rate mode : Variable
Overall bit rate : 917 Kbps
Encoded date : UTC 2017-10-03 18:51:01
Tagged date : UTC 2017-10-03 18:51:01
gsst : 0
gstd : 5585490
Video
ID : 1
Format : AVC
Format/Info : Advanced Video Codec
Format profile : Main@L3.1
Format settings, CABAC : Yes
Format settings, ReFrames : 3 frames
Codec ID : avc1
Codec ID/Info : Advanced Video Coding
Duration : 1h 33mn
Bit rate mode : Variable
Bit rate : 788 Kbps
Width : 1 280 pixels
Height : 720 pixels
Display aspect ratio : 16:9
Frame rate mode : Constant
Frame rate : 30.000 fps
Color space : YUV
Chroma subsampling : 4:2:0
Bit depth : 8 bits
Scan type : Progressive
Bits/(Pixel*Frame) : 0.028
Stream size : 525 MiB (86%)
Title : ISO Media file produced by Google Inc. Created on: 10/03/2017.
Encoded date : UTC 2017-10-03 18:51:01
Tagged date : UTC 2017-10-03 18:51:01
Color primaries : BT.709-5, BT.1361, IEC 61966-2-4, SMPTE RP177
Transfer characteristics : BT.709-5, BT.1361
Matrix coefficients : BT.709-5, BT.1361, IEC 61966-2-4 709, SMPTE RP177
Audio
ID : 2
Format : AAC
Format/Info : Advanced Audio Codec
Format profile : LC
Codec ID : 40
Duration : 1h 33mn
Bit rate mode : Variable
Bit rate : 126 Kbps
Channel(s) : 2 channels
Channel positions : Front: L R
Sampling rate : 44.1 KHz
Compression mode : Lossy
Delay relative to video : -33ms
Stream size : 83.6 MiB (14%)
Title : ISO Media file produced

Дополнительная информация:

«Финансовая перезагрузка» с Максимом Темченко – это современные правила миллионера, методика безопасного профессионального инвестирования. Вы осознаете, что деньги нельзя копить, их оборот приносит еще больший доход. Просчитывая риски, проводя анализ будущего вложения и понимая, как увеличить объем рынка, можно получить баснословную прибыль.
Пройдя курс «Финансовая перезагрузка», вы научитесь:
  • Ставить финансовые задачи и достигать их;
  • Перезагружать сознание на психологическом, эмоциональном и ментальном уровнях;
  • Выявлять и исключать сдерживающие блоки;
  • Строить новые привычки и убеждения;
  • Управлять финансами.
Скриншоты:
Скачать .torrent

Для того, чтобы скачать торрент-файл

Максим Темченко - Финансовая перезагрузка (2018)

с нашего сайта, Вам необходимо Войти на сайт под своим логином! Если у Вас ещё нет логина, тогда Вам нужно сначала Зарегистрироваться!

Как скачивать? · Что такое торрент? · Рейтинг и ограничения

RUS388

Здесь бесплатные Вебинары Максима Темченко. И только.
Показать сообщения:    
Ответить на тему

Максим Темченко - Финансовая перезагрузка (2018) скачать торрент (torrent), видеоуроки, тренинги, обучающее видео и видеокурсы

Текущее время: Сегодня 20:19

Часовой пояс: GMT + 4



Вы не можете начинать темы
Вы не можете отвечать на сообщения
Вы не можете редактировать свои сообщения
Вы не можете удалять свои сообщения
Вы не можете голосовать в опросах
Вы не можете прикреплять файлы к сообщениям
Вы не можете скачивать файлы