Учебный центр 1C - Управленческий учет затрат, финансовый результат в прикладном решении "1С:ERP Управление предприятием 2" (2015)

Ответить на тему
 
Автор Сообщение

Yulya ®

Учебный центр 1C | Управленческий учет затрат, финансовый результат в прикладном решении "1С:ERP Управление предприятием 2" (2015) PCRec [H.264] - Автор (режиссер): Учебный центр 1C
Жанр: Финансы
Описание:
В рамках курса разбирается модель управленческого учета, рассматривается и анализируется полученный финансовый результат.
Производится разбор оперативного учета и учет денежных средств.
Рассматриваются блоки:
-Движение денежных средств
-Движение товарно-материальных ценностей
-Движение кредитов и выданных займов
-Учет доходов и расходов
-Учет активов и пассивов
-Формирование финансовых результатов и финансовой отчетности
Продолжительность: 10:42:31
Качество видео: PCRec
Видео: AVC/H.264, 1024x768, ~675 Kbps
Аудио: AAC, 2 ch, 126 Kbps

Mediainfo:

Общее
Полное имя : 1 Введение.mp4
Формат : MPEG-4
Профиль формата : Base Media / Version 2
Идентификатор кодека : mp42 (isom/mp42)
Размер файла : 72,1 Мбайт
Продолжительность : 12 м. 33 с.
Режим общего битрейта : Переменный
Общий поток : 804 Кбит/сек
Дата кодирования : UTC 2015-08-05 14:34:33
Дата пометки : UTC 2015-08-05 14:34:33
Видео
Идентификатор : 1
Формат : AVC
Формат/Информация : Advanced Video Codec
Профиль формата : High@L3.1
Настройки формата : CABAC / 3 Ref Frames
Параметр CABAC формата : Да
Параметр RefFrames формата : 3 кадра
Идентификатор кодека : avc1
Идентификатор кодека/Информация : Advanced Video Coding
Продолжительность : 12 м. 33 с.
Продолжительность оригинала : 12 м. 33 с.
Битрейт : 675 Кбит/сек
Ширина : 1024 пикселя
Высота : 768 пикселей
Соотношение сторон : 4:3
Режим частоты кадров : Переменный
Частота кадров : 30,000 кадров/сек
Минимальная частота кадров : 30,000 кадров/сек
Максимальная частота кадров : 30,030 кадров/сек
Стандарт вещания : NTSC
Цветовое пространство : YUV
Субдискретизация насыщенности : 4:2:0
Битовая глубина : 8 бит
Тип развёртки : Прогрессивная
Бит/(Пиксели*Кадры) : 0.029
Размер потока : 60,6 Мбайт (84%)
Размер потока оригинала : 60,6 Мбайт (84%)
Язык : English
Дата кодирования : UTC 2015-08-05 14:34:43
Дата пометки : UTC 2015-08-05 14:34:43
Цветовой диапазон : Limited
Основные цвета : BT.709
Характеристики трансфера : BT.709
Коэффициенты матрицы : BT.709
mdhd_Duration : 753033
Codec configuration box : avcC
Аудио
Идентификатор : 2
Формат : AAC LC
Формат/Информация : Advanced Audio Codec Low Complexity
Идентификатор кодека : mp4a-40-2
Продолжительность : 12 м. 33 с.
Продолжительность оригинала : 12 м. 33 с.
Вид битрейта : Переменный
Битрейт : 126 Кбит/сек
Максимальный битрейт : 163 Кбит/сек
Каналы : 2 канала
Channel layout : L R
Частота : 44,1 КГц
Частота кадров : 43,066 кадра/сек (1024 SPF)
Метод сжатия : С потерями
Размер потока : 11,3 Мбайт (16%)
Размер потока оригинала : 11,3 Мбайт (16%)
Язык : English
Дата кодирования : UTC 2015-08-05 14:34:43
Дата пометки : UTC 2015-08-05 14:34:43
mdhd_Duration : 753070
Скриншоты:

Дополнительные скриншоты:



Скачать .torrent

Для того, чтобы скачать торрент-файл

Учебный центр 1C - Управленческий учет затрат, финансовый результат в прикладном решении "1С:ERP Управление предприятием 2" (2015)

с нашего сайта, Вам необходимо Войти на сайт под своим логином! Если у Вас ещё нет логина, тогда Вам нужно сначала Зарегистрироваться!

Как скачивать? · Что такое торрент? · Рейтинг и ограничения

Показать сообщения:    
Ответить на тему

Учебный центр 1C - Управленческий учет затрат, финансовый результат в прикладном решении "1С:ERP Управление предприятием 2" (2015) скачать торрент (torrent), видеоуроки, тренинги, обучающее видео и видеокурсы

Текущее время: Сегодня 23:29

Часовой пояс: GMT + 4



Вы не можете начинать темы
Вы не можете отвечать на сообщения
Вы не можете редактировать свои сообщения
Вы не можете удалять свои сообщения
Вы не можете голосовать в опросах
Вы не можете прикреплять файлы к сообщениям
Вы не можете скачивать файлы