Учебный центр 1C - Ошибки в учете - найти и обезвредить! (2015)

Ответить на тему
 
Автор Сообщение

Yulya ®

Учебный центр 1C | Ошибки в учете - найти и обезвредить! (2015) PCRec [H.264]- Автор (режиссер): Учебный центр 1C
Жанр: Бухгалтерский учет
Описание:
Курс основан на опыте преподавания курсов по ведению бухгалтерского учета и внедрения на реальных предприятиях.
Рассматривается база "Бухгалтерия предприятия" с ошибками.
Быстрый обзор первичных настроек:
-Настройка функциональности
-Параметры учета
-Учетная политика
-Экспресс-проверка ведения учета
-Заполнение значений для подстановки по умолчанию
-Универсальный отчет
-Справочники
-Контроль отрицательных остатков
-Поиск и удаление дублей
-Анализ состояния налогового учета
Продолжительность: 03:47:42
Качество видео: PCRec
Видео: AVC/H.264, 1024x768, ~597 Kbps
Аудио: AAC, 2 ch, 126 Kbps

Mediainfo:

Общее
Полное имя : 1.mp4
Формат : MPEG-4
Профиль формата : Base Media / Version 2
Идентификатор кодека : mp42 (isom/mp42)
Размер файла : 516 Мбайт
Продолжительность : 1 ч. 39 м.
Режим общего битрейта : Переменный
Общий поток : 726 Кбит/сек
Дата кодирования : UTC 2016-02-01 13:02:13
Дата пометки : UTC 2016-02-01 13:02:13
Видео
Идентификатор : 1
Формат : AVC
Формат/Информация : Advanced Video Codec
Профиль формата : High@L3.1
Настройки формата : CABAC / 3 Ref Frames
Параметр CABAC формата : Да
Параметр RefFrames формата : 3 кадра
Идентификатор кодека : avc1
Идентификатор кодека/Информация : Advanced Video Coding
Продолжительность : 1 ч. 39 м.
Битрейт : 597 Кбит/сек
Ширина : 1024 пикселя
Высота : 768 пикселей
Соотношение сторон : 4:3
Режим частоты кадров : Постоянный
Частота кадров : 30,000 кадров/сек
Стандарт вещания : NTSC
Цветовое пространство : YUV
Субдискретизация насыщенности : 4:2:0
Битовая глубина : 8 бит
Тип развёртки : Прогрессивная
Бит/(Пиксели*Кадры) : 0.025
Размер потока : 425 Мбайт (82%)
Язык : English
Дата кодирования : UTC 2016-02-01 13:02:13
Дата пометки : UTC 2016-02-01 13:02:13
Цветовой диапазон : Limited
Основные цвета : BT.709
Характеристики трансфера : BT.709
Коэффициенты матрицы : BT.709
Codec configuration box : avcC
Аудио
Идентификатор : 2
Формат : AAC LC
Формат/Информация : Advanced Audio Codec Low Complexity
Идентификатор кодека : mp4a-40-2
Продолжительность : 1 ч. 39 м.
Вид битрейта : Переменный
Битрейт : 126 Кбит/сек
Максимальный битрейт : 172 Кбит/сек
Каналы : 2 канала
Channel layout : L R
Частота : 44,1 КГц
Частота кадров : 43,066 кадра/сек (1024 SPF)
Метод сжатия : С потерями
Размер потока : 89,4 Мбайт (17%)
Язык : English
Дата кодирования : UTC 2016-02-01 13:02:13
Дата пометки : UTC 2016-02-01 13:02:13
Скриншоты:

Дополнительные скриншоты:


Скачать .torrent

Для того, чтобы скачать торрент-файл

Учебный центр 1C - Ошибки в учете - найти и обезвредить! (2015)

с нашего сайта, Вам необходимо Войти на сайт под своим логином! Если у Вас ещё нет логина, тогда Вам нужно сначала Зарегистрироваться!

Как скачивать? · Что такое торрент? · Рейтинг и ограничения

Показать сообщения:    
Ответить на тему

Учебный центр 1C - Ошибки в учете - найти и обезвредить! (2015) скачать торрент (torrent), видеоуроки, тренинги, обучающее видео и видеокурсы

Текущее время: Сегодня 13:26

Часовой пояс: GMT + 4



Вы не можете начинать темы
Вы не можете отвечать на сообщения
Вы не можете редактировать свои сообщения
Вы не можете удалять свои сообщения
Вы не можете голосовать в опросах
Вы не можете прикреплять файлы к сообщениям
Вы не можете скачивать файлы