loftschool - Node.js серверный JavaScript (2018)

Ответить на тему
 
Автор Сообщение

Yulya ®

loftschool | Node.js серверный JavaScript (2018) PCRec [H.264] - Автор (режиссер): loftschool
Жанр: Программирование, JavaScript, Node.js
Описание:
Будущее — за распределенными системами, построенными на событийно-ориентированной основе, циклах и потоках. Объектная модель документа — всё ещё существует, но это уже не столько форма представления разметки HTML, сколько структура данных в памяти, динамически создаваемая с использованием JavaScript. Архитектура Node.js — идеальный выбор в этих условиях. Так же популярности Node.js добавляет обширный NPM-репозиторий, внушительное сообщество разработчиков и возможность использовать JavaScript как на клиенте, так и на сервере.
В течение курса вы разработаете серверную часть для корпоративного приложения — внутренней системы взаимодействия между сотрудниками. Вымышленный корпоративный сайт. Новости, чат, панель администратора и пользовательские настройки.
Продолжительность: 32:17:05
Качество видео: PCRec
Видео: AVC/H.264, 1448x728, ~216-1805 Kbps
Аудио: AAC, 2 ch, 165-193 Kbps

Mediainfo:

Общее
Полное имя : .\0. Введение в Node.js и настройка рабочей среды\001 Введение в Node.mp4
Формат : MPEG-4
Профиль формата : Base Media
Идентификатор кодека : isom (isom/iso2/avc1/mp41)
Размер файла : 202 Мбайт
Продолжительность : 1 ч. 7 м.
Общий поток : 416 Кбит/сек
Программа кодирования : Lavf57.25.100
Видео
Идентификатор : 1
Формат : AVC
Формат/Информация : Advanced Video Codec
Профиль формата : High@L3.2
Настройки формата : 1 Ref Frames
Параметр CABAC формата : Нет
Параметр RefFrames формата : 1 кадр
Идентификатор кодека : avc1
Идентификатор кодека/Информация : Advanced Video Coding
Продолжительность : 1 ч. 7 м.
Битрейт : 216 Кбит/сек
Ширина : 1448 пикселей
Высота : 728 пикселей
Соотношение сторон : 1,989
Режим частоты кадров : Постоянный
Частота кадров : 30,000 кадров/сек
Цветовое пространство : YUV
Субдискретизация насыщенности : 4:2:0
Битовая глубина : 8 бит
Тип развёртки : Прогрессивная
Бит/(Пиксели*Кадры) : 0.007
Размер потока : 105 Мбайт (52%)
Цветовой диапазон : Limited
Аудио
Идентификатор : 2
Формат : AAC
Формат/Информация : Advanced Audio Codec
Профиль формата : LC
Идентификатор кодека : mp4a-40-2
Продолжительность : 1 ч. 7 м.
Вид битрейта : Постоянный
Битрейт : 192 Кбит/сек
Каналы : 2 канала
Расположение каналов : Front: L R
Частота : 44,1 КГц
Частота кадров : 43,066 кадра/сек (1024 SPF)
Метод сжатия : С потерями
Размер потока : 93,5 Мбайт (46%)
Default : Да
AlternateGroup/String : 1

Дополнительная информация:

В раздаче имеются архивы! В них содержится дополнительные материалы.
Скриншоты:
Скачать .torrent

Для того, чтобы скачать торрент-файл

loftschool - Node.js серверный JavaScript (2018)

с нашего сайта, Вам необходимо Войти на сайт под своим логином! Если у Вас ещё нет логина, тогда Вам нужно сначала Зарегистрироваться!

Как скачивать? · Что такое торрент? · Рейтинг и ограничения

Показать сообщения:    
Ответить на тему

loftschool - Node.js серверный JavaScript (2018) скачать торрент (torrent), видеоуроки, тренинги, обучающее видео и видеокурсы

Текущее время: Сегодня 08:32

Часовой пояс: GMT + 4



Вы не можете начинать темы
Вы не можете отвечать на сообщения
Вы не можете редактировать свои сообщения
Вы не можете удалять свои сообщения
Вы не можете голосовать в опросах
Вы не можете прикреплять файлы к сообщениям
Вы не можете скачивать файлы