Илья Цымбалист, Алексей Лысенко - Вся система профессиональной работы с Яндекс Директ (2014)

Ответить на тему
 
Автор Сообщение

Yulya ®

-Илья Цымбалист, Алексей Лысенко - Вся система профессиональной работы с Яндекс Директ (2014)- Автор (режиссер): Илья Цымбалист, Алексей Лысенко
Жанр: Обучающий видеокурс
Продолжительность: 02:54:21
Качество видео: PCRec
Видеокодек: DivX
Битрейт видео: ~15fps 1431 Kbps
Размер кадра: 1024x660
Аудиокодек: MP3
Битрейт аудио: 44100Hz stereo 128kbps
Доп. материалы: Имеются
Описание:
Информация, которую Вы найдете в видеокурсе - это выжимка всего четырехлетнего опыта работы Авторов с Яндекс Директ. Это не тот случай, когда в материале курса просто засняли как регистрироваться в сервисе Яндекс Директ, составлять объявление и оплачивать кампанию. В курсе даётся Унивесальная система работы с Директом для совершенно разных задач. В нём Вы найдете не только расширенный ответ на вопрос что делать, но и получите разбор каждого шага от и до с закадровыми пояснениями.
А так же Вы узнаете массу дополнительных закулисных тонкостей обновленного Яндекс Директа. Эти знания - не на уровне "умения пользоваться интерфейсом Директа", хотя, это, естественно, тоже есть. Данный видеокурс преподаст Всю основу работы с Яндекс Директа и не имеет смысла заниматься глубоким изучением частных случаев, не пройдя эту основу. Все пользователи проходят через нее в обязательном порядке. В видеокурсе нет спланировано пропущенных деталей с целью допродать их потом дороже.

Дополнительная информация:

Содержание:
01. Обзорный урок по контекстной рекламе на сервисе Яндекс Директ
02. Портрет аудитории, выгоды товара, конкурентные преимущества, ВЧ направление, классификация ключевых фраз
03. Техника обработки ключевых фраз
04. Операторы Яндекс Директа для обработки ключевых фраз
05. Первичная настройка рекламной кампании
06. Создание объявлений и назначение ставок
07. Как именно использовать сервис Яндекс Метрика для анализа эффективности рекламы в Директе
08. Подключение Яндекс Метрики, создание счетчика
09. Пример - внедрение кода счетчика на страницу, создание цели и привязка цели к кнопке на странице
10. Действия после старта рекламной кампании

MI

Общее
Полное имя : D:\Андрей\Ya_dir4ct\1. Обзорный урок по контекстной рекламе на сервисе Яндекс Директ.avi
Формат : AVI
Формат/Информация : Audio Video Interleave
Размер файла : 165 Мбайт
Продолжительность : 14 м.
Общий поток : 1570 Кбит/сек
Программа кодирования : Lavf55.34.101
Видео
Идентификатор : 0
Формат : MPEG-4 Visual
Профиль формата : Simple@L1
Параметр BVOP формата : Нет
Параметр QPel формата : Нет
Параметр GMC формата : Без точки перехода
Параметр матрицы формата : Default (H.263)
Идентификатор кодека : divx
Идентификатор кодека/Информация : Mainly used by Google
Идентификатор кодека/Подсказка : DivX
Продолжительность : 14 м.
Битрейт : 1431 Кбит/сек
Ширина : 1024 пикселя
Высота : 660 пикселей
Соотношение сторон : 1,551
Соотношение сторон в оригинале : 1,552
Частота кадров : 15,000 кадров/сек
Цветовое пространство : YUV
Субдискретизация насыщенности : 4:2:0
Битовая глубина : 8 бит
Тип развёртки : Прогрессивная
Метод сжатия : С потерями
Бит/(Пиксели*Кадры) : 0.141
Размер потока : 150 Мбайт (91%)
Библиотека кодирования : Lavc55.52.102
Аудио
Идентификатор : 1
Формат : MPEG Audio
Версия формата : Version 1
Профиль формата : Layer 3
Режим : Joint stereo
Расширение режима : MS Stereo
Идентификатор кодека : 55
Идентификатор кодека/Подсказка : MP3
Продолжительность : 14 м.
Вид битрейта : Постоянный
Битрейт : 128 Кбит/сек
Каналы : 2 канала
Частота : 44,1 КГц
Метод сжатия : С потерями
Размер потока : 13,4 Мбайт (8%)
Выравнивание : Соединение по промежуткам
Продолжительность промежутка : 26 мс. (0,39 видеокадр)
Время предзагрузки промежутка : 26 мс.
Библиотека кодирования : LAME3.99.5
Скриншоты:
Скачать .torrent

Для того, чтобы скачать торрент-файл

Илья Цымбалист, Алексей Лысенко - Вся система профессиональной работы с Яндекс Директ (2014)

с нашего сайта, Вам необходимо Войти на сайт под своим логином! Если у Вас ещё нет логина, тогда Вам нужно сначала Зарегистрироваться!

Как скачивать? · Что такое торрент? · Рейтинг и ограничения

Показать сообщения:    
Ответить на тему

Илья Цымбалист, Алексей Лысенко - Вся система профессиональной работы с Яндекс Директ (2014) скачать торрент (torrent), видеоуроки, тренинги, обучающее видео и видеокурсы

Текущее время: Сегодня 17:13

Часовой пояс: GMT + 4



Вы не можете начинать темы
Вы не можете отвечать на сообщения
Вы не можете редактировать свои сообщения
Вы не можете удалять свои сообщения
Вы не можете голосовать в опросах
Вы не можете прикреплять файлы к сообщениям
Вы не можете скачивать файлы