Андрей Камбулов - SEO Практика 2 (2013)

Ответить на тему
 
Автор Сообщение

Yulya ®

-Андрей Камбулов - SEO Практика 2 (2013)- Автор (режиссер): Андрей Камбулов
Название: SEO Практика 2
Год выпуска: 2013
Жанр: Поисковая оптимизация
Продолжительность: 08:18:46
Качество видео: PCRec
Видеокодек: AVC
Битрейт видео: ~30fps 896kbps
Размер кадра: 1280x720
Аудиокодек: AAC
Битрейт аудио: 48000Hz mono 63kbps
Доп. материалы: Есть
Описание:
Этот курс в которым мы с вами разберем нюансы работы поисковых систем именно в том объеме в котором требуется для успешной и результативной работы. Так же в курсе присутствует информация о социальных сигналах и о том какую роль они играют на сегодняшний момент. Наглядно продемонстрировано как работать с социальными сигналами. Какими сервисами пользоваться и как автоматизировать практически весь процесс.

Дополнительная информация:

Из курса узнаете
-Как работать с социальными сигналами.
-Какими сервисами пользоваться и как автоматизировать практически весь процесс.
-Какие факторы актуальны и как автоматизировать их отслеживание
-Как экономить минимум 40% на ссылочном бюджете без потери результата
-Как правильно анализировать конкурентов, 80% оптимизаторов упускают эти нюансы из виду
-Какие технические ошибки сводят на нет продвижение вашего сайта
-Пошаговая схема работы, 50% которой упускают из виду ваши конкуренты
Видеокурс содержит
Модуль 1 — Семантическое ядро
Модуль 2 — Техническая оптимизация
Модуль 3 — Внутренняя оптимизация
Модуль 4 — Внешняя оптимизация
Модуль 5 — Поведенческие факторы
Подробнее
Семантическое ядро:
Как подбирать рабочие запросы и
перестать выкидывать деньги на ветер
• Виды запросов
• Обзор сервисов
• Key Collector — автоматизируем часть работы
• Алгоритм подбора запросов
• Удаляем мусор
• Актуальность данных и тренды
• Анализируем конкурентов
• Расчет эффективности ключевого запроса
• Расширение семантики
• Итоговый проектный файл
• Привязка к структуре
Техническая оптимизация:
Как решить большинство проблем
связанных с индексацией сайта
• Основные настройки веб-сервера
• ЧПУ
• Ошибки программной части
• Проблемы индексации сайта
• Управляем индексацией (мета теги, robots.txt, sitemap)
• Уникальный контент и мифы вокруг него
• Дубликаты страниц. Виды и устранение проблемы.
• SEO уязвимости
• Инструменты веб-мастера от Яндекс и Google
• Постановка ТЗ разработчикам
• Чек-лист аудита
Внутренняя оптимизация:
Важнейший этап работы
• Основные факторы релевантности текстов
• Оптимизация страниц под разные типы запросов
• Оптимизация кода страниц
• Формирования основных тегов и мета тегов
• Архитектура контента
• Информационная полнота
• Анализ конкурентов
• Принцип среднего
• Постановка ТЗ на написание текста
• Лингвистика в SEO
• Основы PageRank
• Локальная перелинковка
• Автоматизация
Внешняя оптимизация:
Press Release
• А нужны ЛИ ССЫЛКИ
• Статический и анкорный вес
• Траст и спамность
• Связка донор-акцептор
• Качество донора
• Модерация
• Биржи ссылок и статей
• Стратегия прироста
• Анализ конкурентов
• Естественный линкбилдинг
• Формирование анкор-листа
• Контроль ссылочной массы
• Нужны ли Nofollow ссылки?
• SEO аналитика
• Социальные сигналы
• Санкции поисковых систем

MI

Общее
Полное имя : D:\Андрей\SEO практик-2\Введение\Введение.mp4
Формат : MPEG-4
Профиль формата : Base Media
Идентификатор кодека : isom
Размер файла : 182 Мбайт
Продолжительность : 26 м.
Режим общего битрейта : Переменный
Общий поток : 967 Кбит/сек
Программа кодирования : Lavf54.59.106
Видео
Идентификатор : 1
Формат : AVC
Формат/Информация : Advanced Video Codec
Профиль формата : [url=mailto:Baseline@L4.1]Baseline@L4.1[/url]
Параметр CABAC формата : Нет
Параметр ReFrames формата : 1 кадр
Идентификатор кодека : avc1
Идентификатор кодека/Информация : Advanced Video Coding
Продолжительность : 26 м.
Битрейт : 896 Кбит/сек
Ширина : 1280 пикселей
Высота : 720 пикселей
Соотношение сторон : 16:9
Режим частоты кадров : Переменный
Частота кадров : 24,543 кадров/сек
Минимальная частота кадров : 10,000 кадров/сек
Максимальная частота кадров : 30,000 кадров/сек
Цветовое пространство : YUV
Субдискретизация насыщенности : 4:2:0
Битовая глубина : 8 бит
Тип развёртки : Прогрессивная
Бит/(Пиксели*Кадры) : 0.040
Размер потока : 169 Мбайт (93%)
Аудио
Идентификатор : 2
Формат : AAC
Формат/Информация : Advanced Audio Codec
Профиль формата : LC
Идентификатор кодека : 40
Продолжительность : 26 м.
Вид битрейта : Переменный
Битрейт : 64,0 Кбит/сек
Максимальный битрейт : 256 Кбит/сек
Каналы : 1 канал
Расположение каналов : Front: C
Частота : 48,0 КГц
Метод сжатия : С потерями
Размер потока : 12,0 Мбайт (7%)
Скриншоты:
Скачать .torrent

Для того, чтобы скачать торрент-файл

Андрей Камбулов - SEO Практика 2 (2013)

с нашего сайта, Вам необходимо Войти на сайт под своим логином! Если у Вас ещё нет логина, тогда Вам нужно сначала Зарегистрироваться!

Как скачивать? · Что такое торрент? · Рейтинг и ограничения

Показать сообщения:    
Ответить на тему

Андрей Камбулов - SEO Практика 2 (2013) скачать торрент (torrent), видеоуроки, тренинги, обучающее видео и видеокурсы

Текущее время: Сегодня 05:07

Часовой пояс: GMT + 4



Вы не можете начинать темы
Вы не можете отвечать на сообщения
Вы не можете редактировать свои сообщения
Вы не можете удалять свои сообщения
Вы не можете голосовать в опросах
Вы не можете прикреплять файлы к сообщениям
Вы не можете скачивать файлы