Udemy - Unity для начинающих (2018)

Ответить на тему
 
Автор Сообщение

admin ®

Udemy | Unity для начинающих (2018) PCRec [H.264/720p-LQ] - Автор (режиссер): Роман Сакутин
Производство: Udemy
Жанр: Программирование, Unity
Описание:
Этот интенсив предназначен для того, чтобы в короткие сроки познакомить вас с движком Unity и с основами скриптинга. Во время занятий вы научитесь работать с редактором, с компонентами, со спрайтами, с анимацией, со звуком, с тригерами, коллизиями и физикой. Все занятия ведутся с заранее заготовленными ресурсами, к которым у вас будет доступ. Это позволяет сразу видеть результат своей работы. Особым моментом будет рассмотрение системы Shuriken для создания приятных глазу базовых VFX-эффектов.
Вы получите кучу часов занятий и решите множество практических задач. После этого вы уже сможете комфортно развиваться дальше в этом движке и как создавать свои проекты, так и устраиваться на работу начинающим разработчиком.
Продолжительность: 09:51:53
Качество видео: PCRec
Видео: AVC/H.264, 1280x720, ~575-1900 Kbps
Аудио: AAC, 2 ch, 127-128 Kbps

Содержание:

Основы Unity
Основная теория, которая вам пригодится. Интерфейс Unity. Базовые понятия геометрии. Строение сцены и системы координат. На этом занятие вы создадите свою первую сцену с 2D спрайтами. А также сделаете ещё одну сцену с меню с помощью системы Unity UI. Потом мы познакомимся со строением скриптовой части Unity и добавим ей жизни с помощью скриптов. Обязательно поговорим об идеологии Unity и о паттерне Entity-Component-System.
Анимация и физика
Познакомимся с окном анимации и сделаем как спрайтовую анимацию, так и анимацию, основанную на изменениях компонентов. Привяжем анимацию к событиям игрового мира с помощью скриптов. Обязательно напишем контроллер персонажа и пустим его погулять по нашему миру. Сделаем обжигающий костёр, падающие скалы и скромную сумку, в которую игрок сможет собирать элементы игрового мира. Сделаем звуковое сопровождение: лёгкий шелест листвы, поступь игрока и специальные звуковые эффекты в зонах игры.
Продвинутые темы
Сделаем для контроллера машину состояний, которая будет связана с графом анимаций. Обязательно реализуем идеи участников интенсива для закрепления материала. Под конец нас будет ждать система Shuriken которая позволит создать динамичный огонь, падающие листья и пыль от шагов игрока.

Mediainfo:

Общее
Полное имя : C:\Users\Dima\Downloads\курсы\[Udemy] Unity для начинающих - полный практический набор\01 Основы Unity\001 Игровой движок.mp4
Формат : MPEG-4
Профиль формата : Base Media
Идентификатор кодека : isom (isom/iso2/avc1/mp41)
Размер файла : 59,0 Мбайт
Продолжительность : 11 м. 35 с.
Общий поток : 713 Кбит/сек
Программа кодирования : Lavf57.71.100
Видео
Идентификатор : 1
Формат : AVC
Формат/Информация : Advanced Video Codec
Профиль формата : Main@L3.1
Настройки формата : CABAC / 4 Ref Frames
Параметр CABAC формата : Да
Параметр RefFrames формата : 4 кадра
Параметр GOP формата : M=4, N=60
Идентификатор кодека : avc1
Идентификатор кодека/Информация : Advanced Video Coding
Продолжительность : 11 м. 35 с.
Битрейт : 576 Кбит/сек
Номинальный битрейт : 3000 Кбит/сек
Ширина : 1280 пикселей
Высота : 720 пикселей
Соотношение сторон : 16:9
Режим частоты кадров : Постоянный
Частота кадров : 30,000 кадров/сек
Цветовое пространство : YUV
Субдискретизация насыщенности : 4:2:0
Битовая глубина : 8 бит
Тип развёртки : Прогрессивная
Бит/(Пиксели*Кадры) : 0.021
Размер потока : 47,7 Мбайт (81%)
Библиотека кодирования : x264 core 148
Настройки программы : cabac=1 / ref=3 / deblock=1:-1:-1 / analyse=0x1:0x111 / me=umh / subme=6 / psy=1 / psy_rd=1.00:0.15 / mixed_ref=1 / me_range=16 / chroma_me=1 / trellis=1 / 8x8dct=0 / cqm=0 / deadzone=21,11 / fast_pskip=1 / chroma_qp_offset=-3 / threads=3 / lookahead_threads=1 / sliced_threads=0 / nr=0 / decimate=1 / interlaced=0 / bluray_compat=0 / constrained_intra=0 / bframes=3 / b_pyramid=2 / b_adapt=1 / b_bias=0 / direct=1 / weightb=1 / open_gop=0 / weightp=2 / keyint=60 / keyint_min=6 / scenecut=0 / intra_refresh=0 / rc_lookahead=60 / rc=cbr / mbtree=1 / bitrate=3000 / ratetol=1.0 / qcomp=0.60 / qpmin=0 / qpmax=69 / qpstep=4 / vbv_maxrate=3000 / vbv_bufsize=6000 / nal_hrd=none / filler=0 / ip_ratio=1.40 / aq=1:1.00
Аудио
Идентификатор : 2
Формат : AAC
Формат/Информация : Advanced Audio Codec
Профиль формата : LC
Идентификатор кодека : mp4a-40-2
Продолжительность : 11 м. 35 с.
Вид битрейта : Постоянный
Битрейт : 128 Кбит/сек
Каналы : 2 канала
Расположение каналов : Front: L R
Частота : 44,1 КГц
Частота кадров : 43,066 кадра/сек (1024 SPF)
Метод сжатия : С потерями
Размер потока : 10,6 Мбайт (18%)
Язык : English
Default : Да
AlternateGroup/String : 1
Скриншоты:
Скачать .torrent

Для того, чтобы скачать торрент-файл

Udemy - Unity для начинающих (2018)

с нашего сайта, Вам необходимо Войти на сайт под своим логином! Если у Вас ещё нет логина, тогда Вам нужно сначала Зарегистрироваться!

Как скачивать? · Что такое торрент? · Рейтинг и ограничения

Показать сообщения:    
Ответить на тему

Udemy - Unity для начинающих (2018) скачать торрент (torrent), видеоуроки, тренинги, обучающее видео и видеокурсы

Текущее время: Сегодня 20:29

Часовой пояс: GMT + 4



Вы не можете начинать темы
Вы не можете отвечать на сообщения
Вы не можете редактировать свои сообщения
Вы не можете удалять свои сообщения
Вы не можете голосовать в опросах
Вы не можете прикреплять файлы к сообщениям
Вы не можете скачивать файлы