Джейми Оливер - Ночь перед Рождеством Джейми Оливера (2015)

Ответить на тему
 
Автор Сообщение

admin ®

Джейми Оливер | Ночь перед Рождеством Джейми Оливера (2015) HDTV [H.264/1080p-LQ] - Автор (режиссер): Джейми Оливер
Жанр: Кулинария
Описание:
Предрождественская передача, которую обязательно смотрят во время приготовления вкусного и легкого праздничного ужина. Готовить на Рождество может быть самым большим кулинарным вызовом года, так что неважно, опытный вы кулинар или новичок, который хочет сделать все правильно, Джейми постарается, чтобы у всех Рождество удалось на все сто
Продолжительность: 0:45:40
Качество видео: HDTV
Видео: AVC/H.264, 1920x1080, ~7193 Kbps
Аудио 1: MP2, 2 ch, 192 Kbps (Русский)
Аудио 2: MP2, 2 ch, 192 Kbps (Английский)

Mediainfo:

Общее
Идентификатор : 1 (0x1)
Полное имя : E:\Кулинария\[Джейми Оливер]\Jamie's Night Before Chistmas HTDV.ts
Формат : MPEG-TS
Размер файла : 2,29 Гбайт
Продолжительность : 45 м. 40 с.
Режим общего битрейта : Переменный
Общий поток : 7193 Кбит/сек
Видео
Идентификатор : 141 (0x8D)
Идентификатор меню : 13002 (0x32CA)
Формат : AVC
Формат/Информация : Advanced Video Codec
Профиль формата : Main@L4
Настройки формата : CABAC / 4 Ref Frames
Параметр CABAC формата : Да
Параметр RefFrames формата : 4 кадра
Параметр GOP формата : M=1, N=33
Идентификатор кодека : 27
Продолжительность : 45 м. 40 с.
Вид битрейта : Постоянный
Битрейт : 6499 Кбит/сек
Ширина : 1920 пикселей
Высота : 1080 пикселей
Соотношение сторон : 16:9
Частота кадров : 25,000 кадров/сек
Цветовое пространство : YUV
Субдискретизация насыщенности : 4:2:0
Битовая глубина : 8 бит
Тип развёртки : Чересстрочная
Метод сохранения типа развёртки : Раздельные поля
Порядок развёртки : Верхнее поле первое
Бит/(Пиксели*Кадры) : 0.125
Размер потока : 2,06 Гбайт (90%)
Аудио #1
Идентификатор : 144 (0x90)
Идентификатор меню : 13002 (0x32CA)
Формат : MPEG Audio
Версия формата : Version 1
Профиль формата : Layer 2
Идентификатор кодека : 3
Продолжительность : 45 м. 40 с.
Вид битрейта : Постоянный
Битрейт : 192 Кбит/сек
Каналы : 2 канала
Частота : 48,0 КГц
Частота кадров : 41,667 кадра/сек (1152 SPF)
Метод сжатия : С потерями
Размер потока : 62,7 Мбайт (3%)
Язык : Russian
Аудио #2
Идентификатор : 145 (0x91)
Идентификатор меню : 13002 (0x32CA)
Формат : MPEG Audio
Версия формата : Version 1
Профиль формата : Layer 2
Идентификатор кодека : 3
Продолжительность : 45 м. 40 с.
Вид битрейта : Постоянный
Битрейт : 192 Кбит/сек
Каналы : 2 канала
Частота : 48,0 КГц
Частота кадров : 41,667 кадра/сек (1152 SPF)
Метод сжатия : С потерями
Размер потока : 62,7 Мбайт (3%)
Язык : English
Скриншоты:
Скачать .torrent

Для того, чтобы скачать торрент-файл

Джейми Оливер - Ночь перед Рождеством Джейми Оливера (2015)

с нашего сайта, Вам необходимо Войти на сайт под своим логином! Если у Вас ещё нет логина, тогда Вам нужно сначала Зарегистрироваться!

Как скачивать? · Что такое торрент? · Рейтинг и ограничения

Показать сообщения:    
Ответить на тему

Джейми Оливер - Ночь перед Рождеством Джейми Оливера (2015) скачать торрент (torrent), видеоуроки, тренинги, обучающее видео и видеокурсы

Текущее время: Сегодня 18:32

Часовой пояс: GMT + 4



Вы не можете начинать темы
Вы не можете отвечать на сообщения
Вы не можете редактировать свои сообщения
Вы не можете удалять свои сообщения
Вы не можете голосовать в опросах
Вы не можете прикреплять файлы к сообщениям
Вы не можете скачивать файлы