Pluralsight.com - Python Fundamentals (2013)

Ответить на тему
 
Автор Сообщение

admin ®

Pluralsight.com | Python Fundamentals (2013) PCRec [H.264] [RU/EN] - Автор (режиссер): Austin Bingham, Robert Smallshire
Производство: Pluralsight.com
Жанр: Программирование
Описание:
Основы языка Python
В этом курсе вы начнёте изучать Python – динамический язык, который применяется в веб-разработках, науке, используется при работе с большими данными и в написании скриптов.
Продолжительность: 05:01:30
Качество видео: PCRec
Перевод: Дублированный (Helluvallyric)
Язык озвучки: Русский, Английский
Видео: AVC/H.264, 1024х768, ~37-1208 Kbps
Аудио 1: AAC, 1 ch, 160 Kbps - Русский, дублированный (Helluvallyric)
Аудио 2: AAC, 1 ch, 160 Kbps - Английский, оригинал

Mediainfo:

General
Complete name : 00_01. Introduction.mp4
Format : MPEG-4
Format profile : Base Media
Codec ID : isom
File size : 1.45 MiB
Duration : 31s 134ms
Overall bit rate : 392 Kbps
Video
ID : 1
Format : AVC
Format/Info : Advanced Video Codec
Format profile : Main@L3.1
Format settings, CABAC : Yes
Format settings, ReFrames : 4 frames
Codec ID : avc1
Codec ID/Info : Advanced Video Coding
Duration : 31s 134ms
Bit rate : 64.5 Kbps
Width : 1 024 pixels
Height : 768 pixels
Display aspect ratio : 4:3
Frame rate mode : Constant
Frame rate : 15.000 fps
Color space : YUV
Chroma subsampling : 4:2:0
Bit depth : 8 bits
Scan type : Progressive
Bits/(Pixel*Frame) : 0.005
Stream size : 245 KiB (16%)
Writing library : x264 core 144 r2525 40bb568
Language : English
Audio #1
ID : 2
Format : AAC
Format/Info : Advanced Audio Codec
Format profile : LC
Codec ID : 40
Duration : 31s 133ms
Duration_LastFrame : 41ms
Bit rate mode : Constant
Bit rate : 160 Kbps
Channel(s) : 2 channels
Channel(s)_Original : 1 channel
Channel positions : Front: C
Sampling rate : 44.1 KHz
Compression mode : Lossy
Stream size : 607 KiB (41%)
Language : Russian
Audio #2
ID : 3
Format : AAC
Format/Info : Advanced Audio Codec
Format profile : LC
Codec ID : 40
Duration : 31s 133ms
Duration_LastFrame : 41ms
Bit rate mode : Constant
Bit rate : 160 Kbps
Channel(s) : 2 channels
Channel(s)_Original : 1 channel
Channel positions : Front: C
Sampling rate : 44.1 KHz
Compression mode : Lossy
Stream size : 607 KiB (41%)
Language : English

Дополнительная информация:

Что такого особенного в Python? Этот язык является выразительным и продуктивным, в него входит замечательная стандартная библиотека, и он является центром большой вселенной замечательных сторонних библиотек. С Python можно написать всё, начиная с простого скрипта и заканчивая сложным приложением, вы можете сделать это быстро, вы сможете сделать это с минимальным количеством строк в коде.
Но для многих людей это отходит на второй план из-за другой важной детали: Python это весело! Интересный стиль Python, быстрый цикл edit-and-run и философия "batteries included" означают, что вы можете наслаждаться написанием кода, а не возиться с компилятором и тяжелым синтаксисом. Python делает опыт написания программного обеспечения не только проще, но и по-настоящему приятным.
Примечание.
В раздаче перевод версии курса от 2013 года.
Файлы упражнений прилагаются к курсу.
Дополнительная информация на офсайте.
Как выбрать звуковую дорожку по умолчанию (ссылка).
Скриншоты:

Дополнительные скриншоты:

Скачать .torrent

Для того, чтобы скачать торрент-файл

Pluralsight.com - Python Fundamentals (2013)

с нашего сайта, Вам необходимо Войти на сайт под своим логином! Если у Вас ещё нет логина, тогда Вам нужно сначала Зарегистрироваться!

Как скачивать? · Что такое торрент? · Рейтинг и ограничения

Показать сообщения:    
Ответить на тему

Pluralsight.com - Python Fundamentals (2013) скачать торрент (torrent), видеоуроки, тренинги, обучающее видео и видеокурсы

Текущее время: Сегодня 09:56

Часовой пояс: GMT + 4



Вы не можете начинать темы
Вы не можете отвечать на сообщения
Вы не можете редактировать свои сообщения
Вы не можете удалять свои сообщения
Вы не можете голосовать в опросах
Вы не можете прикреплять файлы к сообщениям
Вы не можете скачивать файлы