Джейми Оливер - В гостях у Джейми Оливера (2006)

Ответить на тему
 
Автор Сообщение

admin ®

Джейми Оливер | В гостях у Джейми Оливера (2006) HDTV [H.264/1080p-LQ] - Автор (режиссер): Джейми Оливер
Жанр: Кулинария
Описание:
Захватывающее кулинарное шоу знаменитого английского шеф-повара Джейми Оливера вряд ли сможет оставить кого-нибудь равнодушным. Оливер призывает зрителей отбросить страхи и почтительный трепет перед поварским искусством. Рецепты его блюд неординарны, свежи, привлекательны и практичны. Отбросьте правила и стереотипы, и вы узнаете много нового!
Продолжительность: 11:03:49
Качество видео: HDTV
Видео: AVC/H.264, 1920x1080, ~7249 Kbps
Аудио 1: MP2, 2 ch, 160 Kbps (Русские)
Аудио 2: MP2, 2 ch, 160 Kbps (Английские)

Mediainfo:

Общее
Идентификатор : 1 (0x1)
Полное имя : E:\Кулинария\[Джейми Оливер]\Jamie At Home HD\Jamie At Home S01 Episode 1.ts
Формат : MPEG-TS
Размер файла : 1,38 Гбайт
Продолжительность : 24 м. 49 с.
Режим общего битрейта : Переменный
Общий поток : 7966 Кбит/сек
Максимальный общий битрейт : 35,5 Мбит/сек
Видео
Идентификатор : 4113 (0x1011)
Идентификатор меню : 1 (0x1)
Формат : AVC
Формат/Информация : Advanced Video Codec
Профиль формата : Main@L4
Настройки формата : CABAC / 4 Ref Frames
Параметр CABAC формата : Да
Параметр RefFrames формата : 4 кадра
Идентификатор кодека : 27
Продолжительность : 24 м. 49 с.
Битрейт : 7249 Кбит/сек
Ширина : 1920 пикселей
Высота : 1080 пикселей
Соотношение сторон : 16:9
Частота кадров : 25,000 кадров/сек
Стандарт вещания : Component
Цветовое пространство : YUV
Субдискретизация насыщенности : 4:2:0
Битовая глубина : 8 бит
Тип развёртки : MBAFF
Метод сохранения типа развёртки : Чередующиеся поля
Порядок развёртки : Верхнее поле первое
Бит/(Пиксели*Кадры) : 0.140
Размер потока : 1,26 Гбайт (91%)
Цветовой диапазон : Limited
Основные цвета : BT.709
Характеристики трансфера : BT.709
Коэффициенты матрицы : BT.709
Аудио #1
Идентификатор : 4352 (0x1100)
Идентификатор меню : 1 (0x1)
Формат : MPEG Audio
Версия формата : Version 1
Профиль формата : Layer 2
Настройки формата : Joint stereo
Идентификатор кодека : 4
Продолжительность : 24 м. 49 с.
Вид битрейта : Постоянный
Битрейт : 160 Кбит/сек
Каналы : 2 канала
Частота : 48,0 КГц
Частота кадров : 41,667 кадра/сек (1152 SPF)
Метод сжатия : С потерями
Размер потока : 28,4 Мбайт (2%)
Язык : Russian
Аудио #2
Идентификатор : 4353 (0x1101)
Идентификатор меню : 1 (0x1)
Формат : MPEG Audio
Версия формата : Version 1
Профиль формата : Layer 2
Настройки формата : Joint stereo
Идентификатор кодека : 4
Продолжительность : 24 м. 49 с.
Вид битрейта : Постоянный
Битрейт : 160 Кбит/сек
Каналы : 2 канала
Частота : 48,0 КГц
Частота кадров : 41,667 кадра/сек (1152 SPF)
Метод сжатия : С потерями
Размер потока : 28,4 Мбайт (2%)
Язык : English
Скриншоты:
Скачать .torrent

Для того, чтобы скачать торрент-файл

Джейми Оливер - В гостях у Джейми Оливера (2006)

с нашего сайта, Вам необходимо Войти на сайт под своим логином! Если у Вас ещё нет логина, тогда Вам нужно сначала Зарегистрироваться!

Как скачивать? · Что такое торрент? · Рейтинг и ограничения

Показать сообщения:    
Ответить на тему

Джейми Оливер - В гостях у Джейми Оливера (2006) скачать торрент (torrent), видеоуроки, тренинги, обучающее видео и видеокурсы

Текущее время: Сегодня 07:45

Часовой пояс: GMT + 4



Вы не можете начинать темы
Вы не можете отвечать на сообщения
Вы не можете редактировать свои сообщения
Вы не можете удалять свои сообщения
Вы не можете голосовать в опросах
Вы не можете прикреплять файлы к сообщениям
Вы не можете скачивать файлы