Джейми Оливер - Домашние блюда с Джейми Оливером (2014)

Ответить на тему
 
Автор Сообщение

admin ®

Джейми Оливер | Домашние блюда с Джейми Оливером (2014) HDTV [H.264/1080p-LQ] - Автор (режиссер): Джейми Оливер
Жанр: Кулинария
Описание:
Домашние блюда с Джейми Оливером - это увлекательная кулинарная передача, полная рецептов любимых британцами блюд: это и заново открытая британская классика, и блюда для готовки на открытом воздухе и потрясающие пудинги.
Продолжительность: 04:38:12
Качество видео: HDTV
Видео: AVC/H.264, 1920x1080, ~7245 Kbps
Аудио 1: MP2, 2 ch, 160 Kbps (Русские)
Аудио 2: MP2, 2 ch, 160 Kbps (Английские)

Mediainfo:

Общее
Идентификатор : 1 (0x1)
Полное имя : E:\Кулинария\Comfort Food Jamie HD\Comfort.Food.Jamie S01 Episode 1 HDTV.ts
Формат : MPEG-TS
Размер файла : 2,66 Гбайт
Продолжительность : 47 м. 52 с.
Режим общего битрейта : Переменный
Общий поток : 7961 Кбит/сек
Максимальный общий битрейт : 35,5 Мбит/сек
Видео
Идентификатор : 4113 (0x1011)
Идентификатор меню : 1 (0x1)
Формат : AVC
Формат/Информация : Advanced Video Codec
Профиль формата : Main@L4
Настройки формата : CABAC / 4 Ref Frames
Параметр CABAC формата : Да
Параметр RefFrames формата : 4 кадра
Параметр GOP формата : M=3, N=12
Идентификатор кодека : 27
Продолжительность : 47 м. 52 с.
Битрейт : 7245 Кбит/сек
Ширина : 1920 пикселей
Высота : 1080 пикселей
Соотношение сторон : 16:9
Частота кадров : 25,000 кадров/сек
Стандарт вещания : Component
Цветовое пространство : YUV
Субдискретизация насыщенности : 4:2:0
Битовая глубина : 8 бит
Тип развёртки : MBAFF
Метод сохранения типа развёртки : Чередующиеся поля
Порядок развёртки : Верхнее поле первое
Бит/(Пиксели*Кадры) : 0.140
Размер потока : 2,42 Гбайт (91%)
Цветовой диапазон : Limited
Основные цвета : BT.709
Характеристики трансфера : BT.709
Коэффициенты матрицы : BT.709
Аудио #1
Идентификатор : 4352 (0x1100)
Идентификатор меню : 1 (0x1)
Формат : MPEG Audio
Версия формата : Version 1
Профиль формата : Layer 2
Настройки формата : Joint stereo / MS Stereo
Идентификатор кодека : 4
Продолжительность : 47 м. 52 с.
Вид битрейта : Постоянный
Битрейт : 160 Кбит/сек
Каналы : 2 канала
Частота : 48,0 КГц
Частота кадров : 41,667 кадра/сек (1152 SPF)
Метод сжатия : С потерями
Размер потока : 54,8 Мбайт (2%)
Язык : Russian
Аудио #2
Идентификатор : 4353 (0x1101)
Идентификатор меню : 1 (0x1)
Формат : MPEG Audio
Версия формата : Version 1
Профиль формата : Layer 2
Настройки формата : Joint stereo / MS Stereo
Идентификатор кодека : 4
Продолжительность : 47 м. 52 с.
Вид битрейта : Постоянный
Битрейт : 160 Кбит/сек
Каналы : 2 канала
Частота : 48,0 КГц
Частота кадров : 41,667 кадра/сек (1152 SPF)
Метод сжатия : С потерями
Размер потока : 54,8 Мбайт (2%)
Язык : English
Скриншоты:
Скачать .torrent

Для того, чтобы скачать торрент-файл

Джейми Оливер - Домашние блюда с Джейми Оливером (2014)

с нашего сайта, Вам необходимо Войти на сайт под своим логином! Если у Вас ещё нет логина, тогда Вам нужно сначала Зарегистрироваться!

Как скачивать? · Что такое торрент? · Рейтинг и ограничения

Показать сообщения:    
Ответить на тему

Джейми Оливер - Домашние блюда с Джейми Оливером (2014) скачать торрент (torrent), видеоуроки, тренинги, обучающее видео и видеокурсы

Текущее время: Сегодня 01:29

Часовой пояс: GMT + 4



Вы не можете начинать темы
Вы не можете отвечать на сообщения
Вы не можете редактировать свои сообщения
Вы не можете удалять свои сообщения
Вы не можете голосовать в опросах
Вы не можете прикреплять файлы к сообщениям
Вы не можете скачивать файлы