Григорий-Азиз - Кнопкомет 2: Тренажер, слепая печать за 3-7 дней (2017)

Ответить на тему
 
Автор Сообщение

admin ®

Григорий-Азиз | Кнопкомет 2: Тренажер, слепая печать за 3-7 дней (2017) PCRec [H.264]- Автор (режиссер): Григорий-Азиз
Жанр: Обучающее видео
Описание:
Навык слепого письма давно перестал быть привилегией специалистов. Владение им — хороший тон. В первую очередь, им конечно должны владеть программисты и писатели.
Да и для всех остальных пользователей пк это станет очень полезным дополнением. Вы сможете мгновенно гуглить, быстро переписываться в соц сетях, писать электронные письма, работать над документами. Удивитесь, насколько это станет приятно и легко. Второй блок предназначен для разгона скорости и состоит из самых употребляемых слогов. Примерно те же приемы (гаммы, этюды) используют музыканты для постоянной тренировки скорости. Если вы хотите печатать еще быстрее, тренажер будет для вас полезен.
Программа работает под Windows.
Продолжительность: 00:30:48
Качество видео: PCRec
Видео: AVC/H.264, 854x480, 1360x768, ~723-863 Kbps
Аудио: AAC, 2 ch, 125-193 Kbps

Mediainfo:

General
Complete name : D:\Торренты\knopkomet.2\Инструкции\01. Важные принципы.mp4
Format : MPEG-4
Format profile : Base Media
Codec ID : isom (isom/iso2/avc1/mp41)
File size : 44.0 MiB
Duration : 6 min 10 s
Overall bit rate : 995 kb/s
Writing application : Lavf56.23.105
Video
ID : 1
Format : AVC
Format/Info : Advanced Video Codec
Format profile : Main@L3.1
Format settings : CABAC / 1 Ref Frames
Format settings, CABAC : Yes
Format settings, ReFrames : 1 frame
Codec ID : avc1
Codec ID/Info : Advanced Video Coding
Duration : 6 min 10 s
Bit rate : 864 kb/s
Width : 854 pixels
Height : 480 pixels
Display aspect ratio : 16:9
Frame rate mode : Variable
Frame rate : 30.000 FPS
Minimum frame rate : 29.412 FPS
Maximum frame rate : 30.303 FPS
Color space : YUV
Chroma subsampling : 4:2:0
Bit depth : 8 bits
Scan type : Progressive
Bits/(Pixel*Frame) : 0.070
Stream size : 38.1 MiB (87%)
Color range : Limited
Color primaries : BT.709
Transfer characteristics : BT.709
Matrix coefficients : BT.709
Audio
ID : 2
Format : AAC
Format/Info : Advanced Audio Codec
Format profile : LC
Codec ID : mp4a-40-2
Duration : 6 min 10 s
Bit rate mode : Constant
Bit rate : 126 kb/s
Channel(s) : 2 channels
Channel positions : Front: L R
Sampling rate : 44.1 kHz
Frame rate : 43.066 FPS (1024 SPF)
Compression mode : Lossy
Stream size : 5.55 MiB (13%)
Default : Yes
Alternate group : 1
General
Complete name : D:\Торренты\knopkomet.2\Инструкции\02. Настройки программы.mp4
Format : MPEG-4
Format profile : Base Media
Codec ID : isom (mp41)
File size : 86.0 MiB
Duration : 13 min 1 s
Overall bit rate mode : Variable
Overall bit rate : 924 kb/s
Encoded date : UTC 2017-09-03 01:21:16
Tagged date : UTC 2017-09-03 01:21:16
Writing application : BandiMp4Muxer 1.0
Video
ID : 1
Format : AVC
Format/Info : Advanced Video Codec
Format profile : Main@L3.2
Format settings : CABAC / 2 Ref Frames
Format settings, CABAC : Yes
Format settings, ReFrames : 2 frames
Codec ID : avc1
Codec ID/Info : Advanced Video Coding
Duration : 13 min 1 s
Bit rate : 724 kb/s
Width : 1 360 pixels
Height : 768 pixels
Display aspect ratio : 16:9
Frame rate mode : Variable
Frame rate : 30.000 FPS
Minimum frame rate : 10.000 FPS
Maximum frame rate : 30.030 FPS
Color space : YUV
Chroma subsampling : 4:2:0
Bit depth : 8 bits
Scan type : Progressive
Bits/(Pixel*Frame) : 0.023
Stream size : 67.4 MiB (78%)
Language : English
Encoded date : UTC 2017-09-03 01:21:16
Tagged date : UTC 2017-09-03 01:21:16
Audio
ID : 2
Format : AAC
Format/Info : Advanced Audio Codec
Format profile : LC
Codec ID : mp4a-40-2
Duration : 13 min 1 s
Duration_LastFrame : -1 ms
Bit rate mode : Variable
Bit rate : 192 kb/s
Maximum bit rate : 285 kb/s
Channel(s) : 2 channels
Channel positions : Front: L R
Sampling rate : 48.0 kHz
Frame rate : 46.875 FPS (1024 SPF)
Compression mode : Lossy
Stream size : 18.0 MiB (21%)
Language : English
Encoded date : UTC 2017-09-03 01:21:16
Tagged date : UTC 2017-09-03 01:21:16

Особенности программы

  • Уникальный алгоритм. Ничего подобного я не встречал. Если найдете, просьба поделиться.
  • Интенсивность. Программа побуждает вас работать интенсивно.
  • Обратная связь. Сразу после ошибки следует отработка. После правильного нажатия - тоже отработка. Формируется положительное закрепление.
  • В тренажере заложены 3 кита постановки навыков - ФОКУС, ИНТЕНСИВНОСТЬ, ОБРАТНАЯ СВЯЗЬ.
  • На экране отображаются подсказки. Фактически, вы печатаете вслепую с первых секунд.
  • Оптимальная загрузка внимания. За 1 раз тренируется блок в 6-10 символов. Нет нужды в сотнях упражнений!
  • Щадящая нагрузка на психику. Постепенное исчезновение подсказок. Навык закладывается напрямую в моторику, в обход сознания.
  • Захватывающий игровой процесс. В каждом уровне есть цель - заполнить полоску. Очень сложно оторваться.
  • Программа будет полезна как для новичков (блок 1), так и для уже печатающих в слепую для разгона скорости (блок 2)
  • В программе использованы наиболее употребимые слоги (блок 2).

Вопросы и ответы

Кому может пригодиться этот тренажер?
Навык слепого письма давно перестал быть привелегией специалистов. Владение им - хороший тон. В первую очередь, им конечно должны владеть программисты и писатели. Да и для всех остальных пользователей пк это станет очень полезным дополнением. Вы сможете мгновенно гуглить, быстро переписываться в соцсетях, писать электронные письма, работать над документами. Удивитесь, насколько это станет приятно и легко.
Я уже печатаю вслепую, пригодится ли мне тренажер?
Второй блок предназначен для разгона скорости и состоит из самых употребляемых слогов. Примерно те же приемы (гаммы, этюды) используют музыканты для постоянной тренировки скорости. Если вы хотите печатать еще быстрее, тренажер будет для вас полезен.
Будет ли в тренажере такой-то язык?
В программе уже поддерживается 8 раскладок. Также будет возможность добавлять свои языки. Если вы хотите, чтобы ваш язык был включен в релиз, пишите в этой теме.
Сколько времени потребуется?
К сожалению, у меня пока нет статистики. Тут очень много факторов. Навскидку. Если с нуля. Неделя на печатание вслепую. Еще неделя на разгон. Это при условии небольших лайтовых занятий в течении дня. Если упереться - можно быстрее. По отзывам - в любом случае это будет быстрее в 2-3 раза, чем то же Соло. И без лютой нагрузки на вашу психику.
Если у меня поврежден/отсутствует фаланга/палец подойдет ли мне?
Вполне. Просто другой рабочий палец будет охватывать БОльшее количество клавиш. Вы также сможете создавать свои упражнения именно для этого пальца и их отрабатывать.
Скриншоты:
Скачать .torrent

Для того, чтобы скачать торрент-файл

Григорий-Азиз - Кнопкомет 2: Тренажер, слепая печать за 3-7 дней (2017)

с нашего сайта, Вам необходимо Войти на сайт под своим логином! Если у Вас ещё нет логина, тогда Вам нужно сначала Зарегистрироваться!

Как скачивать? · Что такое торрент? · Рейтинг и ограничения

Показать сообщения:    
Ответить на тему

Григорий-Азиз - Кнопкомет 2: Тренажер, слепая печать за 3-7 дней (2017) скачать торрент (torrent), видеоуроки, тренинги, обучающее видео и видеокурсы

Текущее время: Сегодня 17:31

Часовой пояс: GMT + 4



Вы не можете начинать темы
Вы не можете отвечать на сообщения
Вы не можете редактировать свои сообщения
Вы не можете удалять свои сообщения
Вы не можете голосовать в опросах
Вы не можете прикреплять файлы к сообщениям
Вы не можете скачивать файлы