Специалист - Тестирование ПО (2017)

Ответить на тему
 
Автор Сообщение

Yulya ®

Специалист | Тестирование ПО (2017) PCRec [H.264] - Автор (режиссер): Специалист
Жанр: Программное обеспечение
Описание:
Разработчики программных продуктов крайне заинтересованы в том, чтобы их программное обеспечение работало всегда без отказов и сбоев. Это дает не только конкурентные преимущества и кредит доверия клиентов, но и облегчает сопровождение и развитие ПО.
На курсах тестировщиков ПО в Центре «Специалист» слушатели научатся еще на этапе создания продукта исключать любые проблемы, которые могут возникнуть при его использовании.
Продолжительность: 42:52:34
Качество видео: PCRec
Видео: AVC/H.264, 1024x768, ~96-147 Kbps
Аудио: AAC, 2 ch, 253 Kbps

Mediainfo:

Общее
Полное имя : .\Уровень 2. Управление командой тестировщиков\test2u_day4.mp4
Формат : MPEG-4
Профиль формата : Base Media / Version 2
Идентификатор кодека : mp42 (isom/mp42)
Размер файла : 268 Мбайт
Продолжительность : 1 ч. 46 м.
Режим общего битрейта : Переменный
Общий поток : 353 Кбит/сек
Дата кодирования : UTC 2016-05-18 15:23:37
Дата пометки : UTC 2016-05-18 15:23:37
Видео
Идентификатор : 1
Формат : AVC
Формат/Информация : Advanced Video Codec
Профиль формата : Main@L3.1
Настройки формата : CABAC / 3 Ref Frames
Параметр CABAC формата : Да
Параметр RefFrames формата : 3 кадра
Идентификатор кодека : avc1
Идентификатор кодека/Информация : Advanced Video Coding
Продолжительность : 1 ч. 46 м.
Битрейт : 96,1 Кбит/сек
Ширина : 1024 пикселя
Высота : 768 пикселей
Соотношение сторон : 4:3
Режим частоты кадров : Постоянный
Частота кадров : 30,000 кадров/сек
Стандарт вещания : NTSC
Цветовое пространство : YUV
Субдискретизация насыщенности : 4:2:0
Битовая глубина : 8 бит
Тип развёртки : Прогрессивная
Бит/(Пиксели*Кадры) : 0.004
Размер потока : 73,0 Мбайт (27%)
Язык : English
Дата кодирования : UTC 2016-05-18 15:23:37
Дата пометки : UTC 2016-05-18 15:23:37
Цветовой диапазон : Limited
Аудио
Идентификатор : 2
Формат : AAC
Формат/Информация : Advanced Audio Codec
Профиль формата : LC
Идентификатор кодека : mp4a-40-2
Продолжительность : 1 ч. 46 м.
Вид битрейта : Переменный
Битрейт : 254 Кбит/сек
Максимальный битрейт : 384 Кбит/сек
Каналы : 2 канала
Расположение каналов : Front: L R
Частота : 44,1 КГц
Частота кадров : 43,066 кадра/сек (1024 SPF)
Метод сжатия : С потерями
Размер потока : 193 Мбайт (72%)
Язык : English
Дата кодирования : UTC 2016-05-18 15:23:37
Дата пометки : UTC 2016-05-18 15:23:37

Содержание:

Тестирование ПО. Уровень 1. Тестировщик программного обеспечения
Сверхнадежное программное обеспечение — мечта любого программиста и пользователя. Без работы специалиста по тестированию невозможен выпуск ни одного программного продукта. От правильного функционирования ПО может зависеть успех бизнеса, работа финансовых или промышленных компаний. В рамках курса по тестированию ПО Вы научитесь разрабатывать тестовые планы (TestPlan) и тестовые примеры (TestCase), выполнять тестирование в соответствии с заранее подготовленным тестовым планом, обнаруживать ошибки при выполнении тестирования и документировать их, оценивать и тестировать программный продукт с точки зрения функциональности.
Тестирование ПО. Уровень 2. Управление командой тестировщиков.
Курс поможет Вам эффективно сформировать команду и наладить процесс тестирования путем закрепления полученных знаний на «Тестировщик ПО. Уровень 1». В курсе на практике Вы узнаете, что такое тест-менеджмент, как сформировать эффективную команду для тестирования ПО, как выстраивать конструктивные отношения в команде, метрики и риски тестирования. Во втором модуле курса Вас ждет интенсивное погружение в тестирование ПО на специально разработанном программном комплексе. Тестируя его, Вы столкнетесь с типичными проблемами тестирования и способами их решения.
Курс предназначен для тест-менеджеров, тест-лидов и тестировщиков, чтобы закрепить теоретические знания на практике. Вы научитесь тестировать ПО на практике, выстраивать отношения в команде, планировать свое время, делегировать задачи, выявлять риски. Кроме этого Вы систематизируете знания и намного повысите эффективность своей работы.
Тестирование ПО. Уровень 2. Тест - дизайн.
Программные системы становятся все сложней и запутанней, обрабатывают все большие объемы данных, обзаводятся все более функциональным и красивым графическим интерфейсом. Для проверки выполнения требований и обнаружения ошибок чаще всего используется тестирование. Наибольшее внимание при тестировании программ уделяется проектированию эффективных тестов. Какие техники проектирования тестов использовать? Как решить, какие тесты являются самыми важными? Как можно уменьшить число тестов при увеличении охвата? Тест-дизайн отвечает на эти и многие другие вопросы тестировщиков.
В курсе «Тест-дизайн» освещаются современные подходы к проектированию тестов, рассматриваются техники функционального тестирования. Каждая техника тест-дизайна иллюстрируется подробными примерами. Курс ориентирован на выработку практических навыков проектирования тестов.
В первую очередь курс будет интересен тестировщикам ПО, которые занимаются проектированием тестов, а так же принимают участие в планировании проектов по тестированию и определении техник и методов тестирования.
Скриншоты:
Скачать .torrent

Для того, чтобы скачать торрент-файл

Специалист - Тестирование ПО (2017)

с нашего сайта, Вам необходимо Войти на сайт под своим логином! Если у Вас ещё нет логина, тогда Вам нужно сначала Зарегистрироваться!

Как скачивать? · Что такое торрент? · Рейтинг и ограничения

Показать сообщения:    
Ответить на тему

Специалист - Тестирование ПО (2017) скачать торрент (torrent), видеоуроки, тренинги, обучающее видео и видеокурсы

Текущее время: Сегодня 10:06

Часовой пояс: GMT + 4



Вы не можете начинать темы
Вы не можете отвечать на сообщения
Вы не можете редактировать свои сообщения
Вы не можете удалять свои сообщения
Вы не можете голосовать в опросах
Вы не можете прикреплять файлы к сообщениям
Вы не можете скачивать файлы