JavaBegin - Hibernate (2017)

Ответить на тему
 
Автор Сообщение

Yulya ®

JavaBegin | Hibernate (2017) PCRec [H.264] - Автор (режиссер): JavaBegin
Жанр: Программирование, Java
Описание:
Применение популярного ORM фреймворка, который используется практически во всех крупных проектах.
Продолжительность: 03:59:31
Качество видео: PCRec
Видео: AVC/H.264, 1796x1012-1804x1012, ~539-1575 Kbps
Аудио: AAC, 2 ch, 125-126 Kbps

Mediainfo:

Общее
Полное имя : .\Основы Hibernate для начинающих\video\1-Понятия.mp4
Формат : MPEG-4
Профиль формата : Base Media / Version 2
Идентификатор кодека : mp42 (isom/mp42)
Размер файла : 102 Мбайт
Продолжительность : 8 м. 39 с.
Режим общего битрейта : Переменный
Общий поток : 1646 Кбит/сек
Дата кодирования : UTC 2016-09-18 13:04:29
Дата пометки : UTC 2016-09-18 13:04:29
Видео
Идентификатор : 1
Формат : AVC
Формат/Информация : Advanced Video Codec
Профиль формата : Baseline@L4
Настройки формата : 3 Ref Frames
Параметр CABAC формата : Нет
Параметр RefFrames формата : 3 кадра
Идентификатор кодека : avc1
Идентификатор кодека/Информация : Advanced Video Coding
Продолжительность : 8 м. 39 с.
Продолжительность оригинала : 8 м. 39 с.
Битрейт : 1518 Кбит/сек
Ширина : 1796 пикселей
Высота : 1012 пикселей
Соотношение сторон : 16:9
Режим частоты кадров : Переменный
Частота кадров : 30,000 кадров/сек
Минимальная частота кадров : 30,000 кадров/сек
Максимальная частота кадров : 30,030 кадров/сек
Стандарт вещания : NTSC
Цветовое пространство : YUV
Субдискретизация насыщенности : 4:2:0
Битовая глубина : 8 бит
Тип развёртки : Прогрессивная
Бит/(Пиксели*Кадры) : 0.028
Размер потока : 93,9 Мбайт (92%)
Размер потока оригинала : 93,9 Мбайт (92%)
Язык : English
Дата кодирования : UTC 2016-09-18 13:04:29
Дата пометки : UTC 2016-09-18 13:04:29
Цветовой диапазон : Limited
mdhd_Duration : 519000
Аудио
Идентификатор : 2
Формат : AAC
Формат/Информация : Advanced Audio Codec
Профиль формата : LC
Идентификатор кодека : mp4a-40-2
Продолжительность : 8 м. 39 с.
Продолжительность оригинала : 8 м. 39 с.
Вид битрейта : Переменный
Битрейт : 126 Кбит/сек
Максимальный битрейт : 165 Кбит/сек
Каналы : 2 канала
Расположение каналов : Front: L R
Частота : 44,1 КГц
Частота кадров : 43,066 кадра/сек (1024 SPF)
Метод сжатия : С потерями
Размер потока : 7,78 Мбайт (8%)
Размер потока оригинала : 7,78 Мбайт (8%)
Язык : English
Дата кодирования : UTC 2016-09-18 13:04:29
Дата пометки : UTC 2016-09-18 13:04:29
mdhd_Duration : 519036
Общее
Полное имя : .\Основы Hibernate для начинающих\video\18-Связи.mp4
Формат : MPEG-4
Профиль формата : Base Media / Version 2
Идентификатор кодека : mp42 (isom/mp42)
Размер файла : 160 Мбайт
Продолжительность : 17 м. 14 с.
Режим общего битрейта : Переменный
Общий поток : 1295 Кбит/сек
Дата кодирования : UTC 2016-10-05 09:03:09
Дата пометки : UTC 2016-10-05 09:03:09
Видео
Идентификатор : 1
Формат : AVC
Формат/Информация : Advanced Video Codec
Профиль формата : Baseline@L4
Настройки формата : 3 Ref Frames
Параметр CABAC формата : Нет
Параметр RefFrames формата : 3 кадра
Идентификатор кодека : avc1
Идентификатор кодека/Информация : Advanced Video Coding
Продолжительность : 17 м. 14 с.
Продолжительность оригинала : 17 м. 14 с.
Битрейт : 1167 Кбит/сек
Ширина : 1804 пикселя
Высота : 1012 пикселей
Соотношение сторон : 16:9
Режим частоты кадров : Переменный
Частота кадров : 30,000 кадров/сек
Минимальная частота кадров : 30,000 кадров/сек
Максимальная частота кадров : 30,030 кадров/сек
Стандарт вещания : NTSC
Цветовое пространство : YUV
Субдискретизация насыщенности : 4:2:0
Битовая глубина : 8 бит
Тип развёртки : Прогрессивная
Бит/(Пиксели*Кадры) : 0.021
Размер потока : 144 Мбайт (90%)
Размер потока оригинала : 144 Мбайт (90%)
Язык : English
Дата кодирования : UTC 2016-10-05 09:03:09
Дата пометки : UTC 2016-10-05 09:03:09
Цветовой диапазон : Limited
mdhd_Duration : 1034567
Аудио
Идентификатор : 2
Формат : AAC
Формат/Информация : Advanced Audio Codec
Профиль формата : LC
Идентификатор кодека : mp4a-40-2
Продолжительность : 17 м. 14 с.
Продолжительность оригинала : 17 м. 14 с.
Вид битрейта : Переменный
Битрейт : 126 Кбит/сек
Максимальный битрейт : 226 Кбит/сек
Каналы : 2 канала
Расположение каналов : Front: L R
Частота : 44,1 КГц
Частота кадров : 43,066 кадра/сек (1024 SPF)
Метод сжатия : С потерями
Размер потока : 15,5 Мбайт (10%)
Размер потока оригинала : 15,5 Мбайт (10%)
Язык : English
Дата кодирования : UTC 2016-10-05 09:03:09
Дата пометки : UTC 2016-10-05 09:03:09
mdhd_Duration : 1034612
Скриншоты:
Скачать .torrent

Для того, чтобы скачать торрент-файл

JavaBegin - Hibernate (2017)

с нашего сайта, Вам необходимо Войти на сайт под своим логином! Если у Вас ещё нет логина, тогда Вам нужно сначала Зарегистрироваться!

Как скачивать? · Что такое торрент? · Рейтинг и ограничения

Показать сообщения:    
Ответить на тему

JavaBegin - Hibernate (2017) скачать торрент (torrent), видеоуроки, тренинги, обучающее видео и видеокурсы

Текущее время: Сегодня 00:56

Часовой пояс: GMT + 4



Вы не можете начинать темы
Вы не можете отвечать на сообщения
Вы не можете редактировать свои сообщения
Вы не можете удалять свои сообщения
Вы не можете голосовать в опросах
Вы не можете прикреплять файлы к сообщениям
Вы не можете скачивать файлы