TheTunes.Ru - Руководство по FL STUDIO 12 (2016)

Ответить на тему
 
Автор Сообщение

Yulya ®

TheTunes.Ru | Руководство по FL STUDIO 12 (2016) WEBRip - Автор (режиссер): Вадим Михайлюк
Производство: TheTunes.Ru
Жанр: Работа со звуком
Описание:
В этом курсе TheTunes даёт ответы на некоторые вопросы по работе с FL Studio 12, которые довольно часто возникают у новичков.

Содержание курса

001. Создание Музыки В Fl Studio. Основы
002. Аудио Мифы И Вои?ны Daw
003. Установка И Авторизация Fl Studio
004. Знакомство С Fl Studio. Настройки Аудио
005. Знакомство С Fl Studio. Настройки Midi
006. Знакомство С Fl Studio. Настройка Путей К Ключевым Папкам
007. Общие Настройки. Отображение Пользовательского Интерфейса
008. Общие Настройки. История Отмены Действий
009. Общие Настройки. Настройки Проекта
010. Общие Настройки. Прочие Мелкие Настройки
011. Установка VSTПлагинов. Общие Принципы И Пример Установки Плагинов
012. Установка Vst Плагинов. Создание Собственной Базы Данных Плагинов
013. Установка VST Плагинов. Отличие VST2 От VST3 Плагинов
014. Рабочий Процесс. Добавление Инструментов
015. Рабочий Процесс. Работа Над Композицией
016. Рабочий Процесс. Аранжировка И Редактирование
017. Рабочий Процесс. Сведение И Мастеринг
018. Рабочий Процесс. Экспорт Аудио
019. Основное Меню. Раздел «file»
020. Основное Меню. Раздел «edit»
021. Основное меню. Раздел «Add»
022. Основное меню. Раздел «Patterns»
023. Основное меню. Раздел «View»
024. Основное меню. Раздел «Options»
025. Основное меню. Раздел «Tools»
026. Панель инструментов. Панели в FL Studio
027. Браузер. Управление браузером
028. Браузер. Работа с содержимым
029. Браузер. База данных плагинов
030. Браузер. Меню браузера
031. Channel Rack. Краткий обзор
032. Channel Rack. Меню
033. Channel Rack. Настройки Wrapper. Часть 1
034. Channel Rack. Настройки Wrapper. Часть 2
035. Channel Rack. Настройки Wrapper. Часть 3
036. Channel Rack. Настройки Wrapper. Часть 4
037. Channel Rack. Настройки Wrapper. Часть 5
038. Channel Rack. Общий свинг
039. Channel Rack. Панорама и уровень
040. Channel Rack. Выбор и быстрый Mute каналов
041. Секвенсер и ПР. Общее сравнение
042. Пиано Ролл. Использование
043. Пиано Ролл. Меню. Часть 1
044. Пиано Ролл. Меню. Часть 2
045. Пиано Ролл. Меню. Часть 3
046. Пиано Ролл. Меню. Часть 4
047. Пиано Ролл. Меню. Часть 5
048. Пиано Ролл. Меню. Часть 6
049. Пиано Ролл. Инструменты
050. Плейлист. Управление Плейлистом
051. Плейлист. Временная Шкала И Маркеры
052. Плейлист. Паттерны
053. Плейлист. Аудио-клипы
054. Плейлист. Клипы Автоматизации. Часть 1
055. Плейлист. Клипы Автоматизации. Часть 2
056. Плейлист. Работа С Клипами
057. Плейлист. Меню
058. Плейлист. Инструменты И Треки
059. Микшер. Функции
060. Микшер. Плагины Обработки
061. Микшер. Работа С Микшером-1
062. Микшер. Коммутация Аудио Потоков. Часть 1-1
063. Микшер. Коммутация Аудио Потоков. Часть 2-1
064. Микшер. Запись аудио
065. Микшер. Меню. Часть 1
066. Микшер. Меню. Часть 2
067. Семплер. Часть 1
068. Семплер. Часть 2
069. Семплер. Часть 3
070. Особенности работы с автоматизацией
071. General Settings. Настройки Advanced
072. Audio Settings. Увеличение производительности. Часть 1
073. Audio Settings. Увеличение производительности. Часть 2
074. Audio Settings. Увеличение производительности. Часть 3
075. Audio Settings. Тонкости работы с ASIO
076. Использование опции Project Info
077. Работа с Patcher и Fruity Layer
078. Свойства нот в Piano Roll
079. Понимание слайдов и портаменто
080. Цветовая группировка нот
081. Решение проблем с задержкой в воспроизведении
082. Пре-фейдер и пост-фейдер режимы
083. Варианты параллельной коммутации
084. Форматы файлов при открытии и импорте
085 Форматы файлов при сохранении и экспорте
086 Девять способов создания Sidechain Часть 1
087 Девять способов создания Sidechain Часть 2
088 Что делать, если не найдены плагины или аудиофайлы
089 Что делать, если высота или темп семпла не совпадают
090 Как создать RiseUp эффект в Spire
091 Многоканальная настройка семплера Kontakt 5
092 Как настроить SideChain компрессию в сторонних плагинах
093 Как подогнать вокал или аудио под темп проекта
094 Как накрутить кислотные звуки родными плагинами
095 Как присвоить автоматизацию на несколько параметров
096 Обновление FL Studio 12 3
Продолжительность: 16:16:09
Качество видео: WEBRip
Язык: Русский
Видео: AVC/H.264, 1280x720, ~108 kbps
Аудио: AAC, 2 ch, ~123 kbps

Mediainfo:

Общее
Полное имя : F:\#FL Studio\Видео\[TheTunes.Ru] Руководство по FL STUDIO 12\001. Создание Музыки В Fl Studio. Основы.mp4
Формат : MPEG-4
Профиль формата : Base Media / Version 2
Идентификатор кодека : mp42 (isom/iso2/avc1/mp41)
Размер файла : 11,9 Мбайт
Продолжительность : 7 м. 4 с.
Режим общего битрейта : Переменный
Общий поток : 235 Кбит/сек
Дата кодирования : UTC 2036-02-06 06:28:16
Дата пометки : UTC 2036-02-06 06:28:16
Программа кодирования : HandBrake 0.10.2 2015060900
Видео
Идентификатор : 1
Формат : AVC
Формат/Информация : Advanced Video Codec
Профиль формата : Main@L4
Настройки формата : CABAC / 4 Ref Frames
Параметр CABAC формата : Да
Параметр RefFrames формата : 4 кадра
Идентификатор кодека : avc1
Идентификатор кодека/Информация : Advanced Video Coding
Продолжительность : 7 м. 4 с.
Битрейт : 108 Кбит/сек
Ширина : 1280 пикселей
Высота : 720 пикселей
Соотношение сторон : 16:9
Режим частоты кадров : Переменный
Частота кадров : 15,000 кадров/сек
Минимальная частота кадров : 11,126 кадров/сек
Максимальная частота кадров : 15,000 кадров/сек
Цветовое пространство : YUV
Субдискретизация насыщенности : 4:2:0
Битовая глубина : 8 бит
Тип развёртки : Прогрессивная
Бит/(Пиксели*Кадры) : 0.008
Размер потока : 5,44 Мбайт (46%)
Библиотека кодирования : x264 core 142 r2479 dd79a61
Настройки программы : cabac=1 / ref=1 / deblock=1:0:0 / analyse=0x1:0x111 / me=hex / subme=2 / psy=1 / psy_rd=1.00:0.00 / mixed_ref=0 / me_range=16 / chroma_me=1 / trellis=0 / 8x8dct=0 / cqm=0 / deadzone=21,11 / fast_pskip=1 / chroma_qp_offset=0 / threads=6 / lookahead_threads=2 / sliced_threads=0 / nr=0 / decimate=1 / interlaced=0 / bluray_compat=0 / constrained_intra=0 / bframes=3 / b_pyramid=2 / b_adapt=1 / b_bias=0 / direct=1 / weightb=1 / open_gop=0 / weightp=1 / keyint=150 / keyint_min=15 / scenecut=40 / intra_refresh=0 / rc_lookahead=10 / rc=crf / mbtree=1 / crf=28.0 / qcomp=0.60 / qpmin=0 / qpmax=69 / qpstep=4 / vbv_maxrate=20000 / vbv_bufsize=25000 / crf_max=0.0 / nal_hrd=none / filler=0 / ip_ratio=1.40 / aq=1:1.00
Дата кодирования : UTC 2036-02-06 06:28:16
Дата пометки : UTC 2036-02-06 06:28:16
Цветовой диапазон : Limited
Основные цвета : BT.709
Характеристики трансфера : BT.709
Коэффициенты матрицы : BT.709
Аудио
Идентификатор : 2
Формат : AAC
Формат/Информация : Advanced Audio Codec
Профиль формата : LC
Идентификатор кодека : mp4a-40-2
Продолжительность : 7 м. 4 с.
Вид битрейта : Переменный
Битрейт : 123 Кбит/сек
Каналы : 2 канала
Расположение каналов : Front: L R
Частота : 44,1 КГц
Частота кадров : 43,066 кадра/сек (1024 SPF)
Метод сжатия : С потерями
Размер потока : 6,22 Мбайт (52%)
Заголовок : Stereo / Stereo
Default : Да
AlternateGroup/String : 1
Дата кодирования : UTC 2036-02-06 06:28:16
Дата пометки : UTC 2036-02-06 06:28:16
Скриншоты:

Дополнительные скриншоты:

Скачать .torrent

Для того, чтобы скачать торрент-файл

TheTunes.Ru - Руководство по FL STUDIO 12 (2016)

с нашего сайта, Вам необходимо Войти на сайт под своим логином! Если у Вас ещё нет логина, тогда Вам нужно сначала Зарегистрироваться!

Как скачивать? · Что такое торрент? · Рейтинг и ограничения

Показать сообщения:    
Ответить на тему

TheTunes.Ru - Руководство по FL STUDIO 12 (2016) скачать торрент (torrent), видеоуроки, тренинги, обучающее видео и видеокурсы

Текущее время: Сегодня 13:02

Часовой пояс: GMT + 4



Вы не можете начинать темы
Вы не можете отвечать на сообщения
Вы не можете редактировать свои сообщения
Вы не можете удалять свои сообщения
Вы не можете голосовать в опросах
Вы не можете прикреплять файлы к сообщениям
Вы не можете скачивать файлы