JavaBegin - iOS и Swift (2017-2018)

Ответить на тему
 
Автор Сообщение

Yulya ®

JavaBegin | iOS и Swift (2017-2018) PCRec [H.264] - Автор (режиссер): JavaBegin
Жанр: Программирование, iOS, Swift
Описание:
Разработка мобильных приложений iOS с помощью языка разработки Swift.
Продолжительность: 49:50:50
Качество видео: PCRec
Видео: AVC/H.264, 1080x676-2520x1576, ~109-1417 Kbps
Аудио: AAC, 2 ch, 78-192 Kbps

Mediainfo:

Общее
Полное имя : .\03 Основы разработки на iOS\course\video\Cells.mp4
Формат : MPEG-4
Профиль формата : Base Media / Version 2
Идентификатор кодека : mp42 (isom/iso2/avc1/mp41)
Размер файла : 33,8 Мбайт
Продолжительность : 14 м. 47 с.
Режим общего битрейта : Переменный
Общий поток : 320 Кбит/сек
Дата кодирования : UTC 2018-02-02 07:34:25
Дата пометки : UTC 2018-02-02 07:35:14
Видео
Идентификатор : 2
Формат : AVC
Формат/Информация : Advanced Video Codec
Профиль формата : High@L3.1
Настройки формата : CABAC / 2 Ref Frames
Параметр CABAC формата : Да
Параметр RefFrames формата : 2 кадра
Параметр GOP формата : M=2, N=120
Идентификатор кодека : avc1
Идентификатор кодека/Информация : Advanced Video Coding
Продолжительность : 14 м. 47 с.
Вид битрейта : Переменный
Битрейт : 228 Кбит/сек
Максимальный битрейт : 768 Кбит/сек
Ширина : 1080 пикселей
Высота : 676 пикселей
Соотношение сторон : 16:10
Режим частоты кадров : Постоянный
Частота кадров : 10,000 кадров/сек
Цветовое пространство : YUV
Субдискретизация насыщенности : 4:2:0
Битовая глубина : 8 бит
Тип развёртки : Прогрессивная
Бит/(Пиксели*Кадры) : 0.031
Размер потока : 24,2 Мбайт (71%)
Дата кодирования : UTC 2018-02-02 07:34:25
Дата пометки : UTC 2018-02-02 07:35:09
Основные цвета : BT.709
Характеристики трансфера : BT.709
Коэффициенты матрицы : BT.601
Аудио
Идентификатор : 1
Формат : AAC
Формат/Информация : Advanced Audio Codec
Профиль формата : LC
Идентификатор кодека : mp4a-40-2
Продолжительность : 14 м. 47 с.
Вид битрейта : Переменный
Битрейт : 88,8 Кбит/сек
Максимальный битрейт : 100 Кбит/сек
Каналы : 2 канала
Расположение каналов : Front: L R
Частота : 44,1 КГц
Частота кадров : 43,066 кадра/сек (1024 SPF)
Метод сжатия : С потерями
Размер потока : 9,39 Мбайт (28%)
Дата кодирования : UTC 2018-02-02 07:34:25
Дата пометки : UTC 2018-02-02 07:35:13
Общее
Полное имя : .\01-02 Основы Swift c нуля\course\video\26-error.mp4
Формат : MPEG-4
Профиль формата : Base Media / Version 2
Идентификатор кодека : mp42 (isom/iso2/avc1/mp41)
Размер файла : 113 Мбайт
Продолжительность : 21 м. 46 с.
Режим общего битрейта : Переменный
Общий поток : 724 Кбит/сек
Дата кодирования : UTC 2017-09-14 21:32:31
Дата пометки : UTC 2017-09-14 21:34:14
Видео
Идентификатор : 2
Формат : AVC
Формат/Информация : Advanced Video Codec
Профиль формата : Main@L4
Настройки формата : CABAC / 2 Ref Frames
Параметр CABAC формата : Да
Параметр RefFrames формата : 2 кадра
Параметр GOP формата : M=2, N=120
Идентификатор кодека : avc1
Идентификатор кодека/Информация : Advanced Video Coding
Продолжительность : 21 м. 46 с.
Вид битрейта : Переменный
Битрейт : 631 Кбит/сек
Максимальный битрейт : 768 Кбит/сек
Ширина : 1536 пикселей
Высота : 960 пикселей
Соотношение сторон : 16:10
Режим частоты кадров : Постоянный
Частота кадров : 15,000 кадров/сек
Частота кадров в оригинале : 25,000 кадров/сек
Цветовое пространство : YUV
Субдискретизация насыщенности : 4:2:0
Битовая глубина : 8 бит
Тип развёртки : Прогрессивная
Бит/(Пиксели*Кадры) : 0.029
Размер потока : 98,3 Мбайт (87%)
Дата кодирования : UTC 2017-09-14 21:32:31
Дата пометки : UTC 2017-09-14 21:34:14
Основные цвета : BT.709
Характеристики трансфера : BT.709
Коэффициенты матрицы : BT.709
Аудио
Идентификатор : 1
Формат : AAC
Формат/Информация : Advanced Audio Codec
Профиль формата : LC
Идентификатор кодека : mp4a-40-2
Продолжительность : 21 м. 46 с.
Вид битрейта : Переменный
Битрейт : 89,6 Кбит/сек
Максимальный битрейт : 102 Кбит/сек
Каналы : 2 канала
Расположение каналов : Front: L R
Частота : 44,1 КГц
Частота кадров : 43,066 кадра/сек (1024 SPF)
Метод сжатия : С потерями
Размер потока : 13,9 Мбайт (12%)
Дата кодирования : UTC 2017-09-14 21:32:31
Дата пометки : UTC 2017-09-14 21:33:53
Общее
Полное имя : .\04 Разработка iOS приложения c нуля\course\video\TaskCount_h.mp4
Формат : MPEG-4
Профиль формата : Base Media / Version 2
Идентификатор кодека : mp42 (isom/iso2/avc1/mp41)
Размер файла : 43,6 Мбайт
Продолжительность : 7 м. 27 с.
Режим общего битрейта : Переменный
Общий поток : 817 Кбит/сек
Дата кодирования : UTC 2018-03-13 09:57:40
Дата пометки : UTC 2018-03-13 09:58:45
Видео
Идентификатор : 2
Формат : AVC
Формат/Информация : Advanced Video Codec
Профиль формата : Main@L4
Настройки формата : CABAC / 2 Ref Frames
Параметр CABAC формата : Да
Параметр RefFrames формата : 2 кадра
Параметр GOP формата : M=2, N=120
Идентификатор кодека : avc1
Идентификатор кодека/Информация : Advanced Video Coding
Продолжительность : 7 м. 27 с.
Вид битрейта : Переменный
Битрейт : 736 Кбит/сек
Максимальный битрейт : 768 Кбит/сек
Ширина : 1728 пикселей
Высота : 1080 пикселей
Соотношение сторон : 16:10
Режим частоты кадров : Постоянный
Частота кадров : 10,000 кадров/сек
Цветовое пространство : YUV
Субдискретизация насыщенности : 4:2:0
Битовая глубина : 8 бит
Тип развёртки : Прогрессивная
Бит/(Пиксели*Кадры) : 0.039
Размер потока : 39,2 Мбайт (90%)
Дата кодирования : UTC 2018-03-13 09:57:40
Дата пометки : UTC 2018-03-13 09:58:45
Основные цвета : BT.709
Характеристики трансфера : BT.709
Коэффициенты матрицы : BT.709
Аудио
Идентификатор : 1
Формат : AAC
Формат/Информация : Advanced Audio Codec
Профиль формата : LC
Идентификатор кодека : mp4a-40-2
Продолжительность : 7 м. 27 с.
Вид битрейта : Переменный
Битрейт : 78,8 Кбит/сек
Максимальный битрейт : 91,1 Кбит/сек
Каналы : 2 канала
Расположение каналов : Front: L R
Частота : 44,1 КГц
Частота кадров : 43,066 кадра/сек (1024 SPF)
Метод сжатия : С потерями
Размер потока : 4,20 Мбайт (10%)
Дата кодирования : UTC 2018-03-13 09:57:40
Дата пометки : UTC 2018-03-13 09:57:46
Общее
Полное имя : .\04 Разработка iOS приложения c нуля\course\video\Dorabotki_5.mp4
Формат : MPEG-4
Профиль формата : Base Media / Version 2
Идентификатор кодека : mp42 (isom/iso2/avc1/mp41)
Размер файла : 37,1 Мбайт
Продолжительность : 4 м. 43 с.
Режим общего битрейта : Переменный
Общий поток : 1100 Кбит/сек
Дата кодирования : UTC 2018-04-11 04:53:40
Дата пометки : UTC 2018-04-11 04:56:33
Видео
Идентификатор : 2
Формат : AVC
Формат/Информация : Advanced Video Codec
Профиль формата : High@L5
Настройки формата : CABAC / 2 Ref Frames
Параметр CABAC формата : Да
Параметр RefFrames формата : 2 кадра
Идентификатор кодека : avc1
Идентификатор кодека/Информация : Advanced Video Coding
Продолжительность : 4 м. 43 с.
Вид битрейта : Переменный
Битрейт : 1010 Кбит/сек
Максимальный битрейт : 768 Кбит/сек
Ширина : 2520 пикселей
Высота : 1576 пикселей
Соотношение сторон : 16:10
Режим частоты кадров : Постоянный
Частота кадров : 10,000 кадров/сек
Цветовое пространство : YUV
Субдискретизация насыщенности : 4:2:0
Битовая глубина : 8 бит
Тип развёртки : Прогрессивная
Бит/(Пиксели*Кадры) : 0.025
Размер потока : 34,1 Мбайт (92%)
Дата кодирования : UTC 2018-04-11 04:53:40
Дата пометки : UTC 2018-04-11 04:56:33
Основные цвета : BT.709
Характеристики трансфера : BT.709
Коэффициенты матрицы : BT.709
Аудио
Идентификатор : 1
Формат : AAC
Формат/Информация : Advanced Audio Codec
Профиль формата : LC
Идентификатор кодека : mp4a-40-2
Продолжительность : 4 м. 43 с.
Вид битрейта : Переменный
Битрейт : 88,0 Кбит/сек
Максимальный битрейт : 98,3 Кбит/сек
Каналы : 2 канала
Расположение каналов : Front: L R
Частота : 44,1 КГц
Частота кадров : 43,066 кадра/сек (1024 SPF)
Метод сжатия : С потерями
Размер потока : 2,97 Мбайт (8%)
Дата кодирования : UTC 2018-04-11 04:53:40
Дата пометки : UTC 2018-04-11 04:53:49

Дополнительная информация:

В раздаче имеются архивы! В них содержится дополнительные материалы.

Программа:

00 Перед изучением Swift
В курсе Swift мы не будем проходить азбуку: что такое переменная, объекты, наследование и т.д.
Для этого у нас есть отдельный курс Java, т.е. все это вы уже должны уметь применять.
Главная задача - адаптировать ваши текущие знания для быстрого изучения Swift, сравнить возможности, плюсы-минусы языка.
1) Курс по основам Java
- как работать с объектами
- как создавать проекты
- как работать в IntelliJ IDEA
- как пишутся профессиональные проекты
- основные принципы, которые должен знать любой новичок
- и многое другое
2) Курс по основам ООП-01 Основы Swift 1 неделя
Вводный курс для новичков, где вы получите нужный фундамент: установка и настройка ПО, создание кода на языка Swift, запуск и работа в среде разработки XCode, синтаксис языка, коллекции, базовые конструкциии и пр. Главная цель - научиться программировать на Swift и работать с основными типами данных.-02 Разработка на Swift 1-2 недели
Углубленное изучение Swift на практике - без этих знаний вы не сможете создавать мобильные приложения. Основные темы: ООП, замыкания, организация кода, углубленные возможности Swift, протоколы, коллекции, Generics и многое другое - весь необходимый фундамент для перехода к iOS.
* Данный курс включает в себя также предыдущий курс: "Основы Swift"-03 Основы разработки на iOS 2-3 недели
Создание практического приложения, где вы пройдете основные принципы разработки iOS в XCode, запуск и отладка приложения, оптимизация кода, работа с эмулятором. Код будет написан полностью на языке Swift, который вы уже должны знать к этому моменту. Здесь вы создадите первую реализацию приложения Planner, который продолжите разрабатывать в следующем курсе: Приложение "Planner на iOS".-04 Приложение "Planner на iOS" 3-4 недели
Сложное комплексное приложение, к которому нужно подходить уже с хорошим фундаментом (Swift, основы iOS). Здесь вы научитесь использовать как стандартные возможности, так и сторонние библиотеки. Данный проект можно будет показывать, например, как свое портфолио при поиске работы.
* Данный курс НЕ включает в себя предыдущий - поэтому сначала нужно пройти "Основы разработки на iOS" - в нем вы создадите начало проекта Planner.
Скриншоты:
Скачать .torrent

Для того, чтобы скачать торрент-файл

JavaBegin - iOS и Swift (2017-2018)

с нашего сайта, Вам необходимо Войти на сайт под своим логином! Если у Вас ещё нет логина, тогда Вам нужно сначала Зарегистрироваться!

Как скачивать? · Что такое торрент? · Рейтинг и ограничения

Показать сообщения:    
Ответить на тему

JavaBegin - iOS и Swift (2017-2018) скачать торрент (torrent), видеоуроки, тренинги, обучающее видео и видеокурсы

Текущее время: Сегодня 02:10

Часовой пояс: GMT + 4



Вы не можете начинать темы
Вы не можете отвечать на сообщения
Вы не можете редактировать свои сообщения
Вы не можете удалять свои сообщения
Вы не можете голосовать в опросах
Вы не можете прикреплять файлы к сообщениям
Вы не можете скачивать файлы