OTUS - Администратор Linux (2018)

Ответить на тему
 
Автор Сообщение

Yulya ®

OTUS | Администратор Linux (2018) PCRec [H.264] - Автор (режиссер): OTUS
Жанр: Linux, Системное администрирование
Описание:
Наиболее полный курс администрирования систем на базе Linux, преподаваемый специалистами с большим стажем работы в крупнейших проектах рунета. Курс формирует знания и навыки для построения и обслуживания высоконадёжных высокодоступных систем на базе Linux.
Продолжительность: 53:02:49
Качество видео: PCRec
Видео: AVC/H.264, 576x360-1280x720, ~107-466 Kbps
Аудио: AAC, 2 ch, 64-144 Kbps

Mediainfo:

Общее
Полное имя : .\01 SSH Tips and Tricks\01 SSH Tips and Tricks.mp4
Формат : MPEG-4
Профиль формата : Base Media / Version 2
Идентификатор кодека : mp42 (isom/mp42)
Размер файла : 124 Мбайт
Продолжительность : 1 ч. 13 м.
Режим общего битрейта : Переменный
Общий поток : 238 Кбит/сек
Дата кодирования : UTC 2018-05-13 10:51:08
Дата пометки : UTC 2018-05-13 10:51:08
Видео
Идентификатор : 1
Формат : AVC
Формат/Информация : Advanced Video Codec
Профиль формата : Baseline@L3
Настройки формата : 1 Ref Frames
Параметр CABAC формата : Нет
Параметр RefFrames формата : 1 кадр
Идентификатор кодека : avc1
Идентификатор кодека/Информация : Advanced Video Coding
Продолжительность : 1 ч. 13 м.
Битрейт : 139 Кбит/сек
Ширина : 576 пикселей
Высота : 360 пикселей
Соотношение сторон : 16:10
Режим частоты кадров : Постоянный
Частота кадров : 30,000 кадров/сек
Цветовое пространство : YUV
Субдискретизация насыщенности : 4:2:0
Битовая глубина : 8 бит
Тип развёртки : Прогрессивная
Бит/(Пиксели*Кадры) : 0.022
Размер потока : 72,8 Мбайт (59%)
Заголовок : ISO Media file produced by Google Inc. Created on: 05/13/2018.
Дата кодирования : UTC 2018-05-13 10:51:08
Дата пометки : UTC 2018-05-13 10:51:08
Аудио
Идентификатор : 2
Формат : AAC
Формат/Информация : Advanced Audio Codec
Профиль формата : LC
Идентификатор кодека : mp4a-40-2
Продолжительность : 1 ч. 13 м.
Вид битрейта : Переменный
Битрейт : 96,0 Кбит/сек
Каналы : 2 канала
Расположение каналов : Front: L R
Частота : 44,1 КГц
Частота кадров : 43,066 кадра/сек (1024 SPF)
Метод сжатия : С потерями
Размер потока : 50,2 Мбайт (40%)
Заголовок : ISO Media file produced by Google Inc. Created on: 05/13/2018.
Язык : English
Дата кодирования : UTC 2018-05-13 10:51:08
Дата пометки : UTC 2018-05-13 10:51:08
Общее
Полное имя : .\02 Дисковая подсистема и RAID\02 Disks & RAID.mp4
Формат : MPEG-4
Профиль формата : Base Media / Version 2
Идентификатор кодека : mp42 (isom/mp42)
Размер файла : 210 Мбайт
Продолжительность : 1 ч. 38 м.
Режим общего битрейта : Переменный
Общий поток : 299 Кбит/сек
Дата кодирования : UTC 2017-11-01 08:57:34
Дата пометки : UTC 2017-11-01 08:57:34
gsst : 0
gstd : 5889207
Видео
Идентификатор : 1
Формат : AVC
Формат/Информация : Advanced Video Codec
Профиль формата : Main@L3.1
Настройки формата : CABAC / 3 Ref Frames
Параметр CABAC формата : Да
Параметр RefFrames формата : 3 кадра
Идентификатор кодека : avc1
Идентификатор кодека/Информация : Advanced Video Coding
Продолжительность : 1 ч. 38 м.
Битрейт : 170 Кбит/сек
Ширина : 1280 пикселей
Высота : 720 пикселей
Соотношение сторон : 16:9
Режим частоты кадров : Постоянный
Частота кадров : 20,000 кадров/сек
Цветовое пространство : YUV
Субдискретизация насыщенности : 4:2:0
Битовая глубина : 8 бит
Тип развёртки : Прогрессивная
Бит/(Пиксели*Кадры) : 0.009
Размер потока : 120 Мбайт (57%)
Заголовок : ISO Media file produced by Google Inc. Created on: 11/01/2017.
Дата кодирования : UTC 2017-11-01 08:57:34
Дата пометки : UTC 2017-11-01 08:57:34
Цветовой диапазон : Limited
Основные цвета : BT.709
Характеристики трансфера : BT.709
Коэффициенты матрицы : BT.709
Аудио
Идентификатор : 2
Формат : AAC
Формат/Информация : Advanced Audio Codec
Профиль формата : LC
Идентификатор кодека : mp4a-40-2
Продолжительность : 1 ч. 38 м.
Вид битрейта : Переменный
Битрейт : 126 Кбит/сек
Каналы : 2 канала
Расположение каналов : Front: L R
Частота : 44,1 КГц
Частота кадров : 43,066 кадра/сек (1024 SPF)
Метод сжатия : С потерями
Размер потока : 88,2 Мбайт (42%)
Заголовок : ISO Media file produced by Google Inc. Created on: 11/01/2017.
Дата кодирования : UTC 2017-11-01 08:57:34
Дата пометки : UTC 2017-11-01 08:57:34

Дополнительная информация:

В результате выпускники смогут:
– развернуть платформу на базе Linux по ТЗ или предложить конфигурацию, наиболее подходящую под задачу;
– развернуть большинство типов онлайн-систем и обеспечить их бесперебойное функционирование;
– участвовать в разработке ПО и предлагать инструменты разработчикам;
– составлять исчерпывающий отчёт по сбоям для разработчиков, а в некоторых случаях и предлагать исправления.
Курс будет полезен системным администраторам и практикующим администраторам SMB, которые хотели бы пробить хрустальный потолок своего сектора рынка и вступить в игру онлайн-гигантов.
В процессе обучения мы ответим на следующие вопросы:
– что случилось с системой и как это понять?
– перезагрузил сервер после трёх лет аптайма и не загружается, что делать?
– loadAvg 50 это нормально или надо что-то делать?
– Apache повис и не реагирует ни на что, что делать?
– надо срочно поставить 50 машин, что делать?!
– как настраивать хостинг без регистрации и SMS?
Интенсивность: 2 онлайн-вебинара в неделю по 2 часа каждый и от 1 до 4 часов на домашнюю работу.
01 Архитектура Linux
01 SSH Tips and Tricks
02 Дисковая подсистема и RAID
03 Файловые системы и LVM
04 Загрузка системы
05 Управление процессами
06 Инициализация системы
07 Управление пакетами
02 Linux и сеть
08 Архитектура сетей
09 Сетевые пакеты
10 Маршрутизация
11 DNS
12 Практика сети + DNS
13 Фильтрация трафика часть 1
14 Фильтрация трафика часть 2
15 Фильтрация трафика часть 3
16 автоматизация управления системой
03 Управление, безопасность и мониторинг
17 Аутентификация, Авторизация и PAM
18 LDAP && nsswitch
19 Резервное копирование часть 1
20 Резервное копирование часть 2
21 Резервное копирование часть 3
22 Диагностика системы
23 Введение в мониторинг
24 Мониторинг, примеры
04 Сервисы на базе Linux
25 Основы LAMP
26 Apache и Nginx
27 CGI, FCGI
28 PHP, MySQL
29 Mail subsystem
30 Почтовые системы часть 1
31 Почтовые системы часть 2
32 Системы HL & HA
33 Балансировка
34 HAproxy и методы балансировки tcp-трафика
Скриншоты:
Скачать .torrent

Для того, чтобы скачать торрент-файл

OTUS - Администратор Linux (2018)

с нашего сайта, Вам необходимо Войти на сайт под своим логином! Если у Вас ещё нет логина, тогда Вам нужно сначала Зарегистрироваться!

Как скачивать? · Что такое торрент? · Рейтинг и ограничения

Показать сообщения:    
Ответить на тему

OTUS - Администратор Linux (2018) скачать торрент (torrent), видеоуроки, тренинги, обучающее видео и видеокурсы

Текущее время: Сегодня 20:57

Часовой пояс: GMT + 4



Вы не можете начинать темы
Вы не можете отвечать на сообщения
Вы не можете редактировать свои сообщения
Вы не можете удалять свои сообщения
Вы не можете голосовать в опросах
Вы не можете прикреплять файлы к сообщениям
Вы не можете скачивать файлы