Алексей Гайдин - Работа со вспышками. Практика (2018)

Ответить на тему
 
Автор Сообщение

Yulya ®

Алексей Гайдин | Работа со вспышками. Практика (2018) PCRec [H.264/1080p-LQ]- Автор (режиссер): Алексей Гайдин
Жанр: Съемка фото
Описание:
Более 30 приёмов съёмки с искусственным светом.
Выжимаем локации до дна!
Зачастую, самая большая головная боль на съемке –– это идеи.
Уже 10-й раз видишь примерно одну и ту же съемочную площадку, примерно один и тот же свет на улице. Локациями никого не удивишь, поэтому возникает вопрос: как снимать в них интересно и разнообразно? Не просто отражать свет от стеночки и светить вспышкой в лоб на каждой третьей карточке. Где взять идеи для новых кадров, чтоб разнообразить свое портфолио? Как порадовать клиента и себя любимого?
В этом курсе ты увидишь как работает с искусственным светом опытный фотограф Алексей Гайдин.
Он оперативно ориентируется на локациях, быстро оценивает доступный свет, окружение, дополняет это всё искусственным светом и показывает десятки удачных приёмов с эффектными акцентами, для того, чтоб ты мог применить их в своей практике!
Зная столь много разнообразных приёмов, ты легко сориентируешься на любой съемке и выдашь успешный результат!
Продолжительность: 02:49:53
Качество видео: PCRec
Видео: AVC/H.264, 1920x1080, ~5000 Kbps
Аудио: AAC, 2 ch, 256 Kbps

Дополнительно

• Как снимать со вспышкой и софтбоксом. Когда стоит использовать софтбокс, и как это делать эффективно.
• Работа с голой вспышкой: плюсы и минусы. Использование однотонных поверхностей как отражателей. Фантазия - в бой: располагаем вспышку в нестандартных местах, придумываем и получаем интересный неровный свет.
• Съемка с модификаторами. Как разнообразить съемку с помощью масок (трафаретов), расставляем цветовые акценты с жесткими границами.
• Полезная работа с двумя вспышками. Решаем проблему недостатка солнечного света в помещении. Как направить солнечный свет в нужную сторону. Как подсветить предметы в комнате и получить неровный интересный свет. Когда стоит использовать комбинации: софт + вспышка, два софта, две голых вспышки.
• Как имитировать тёплый свет в помещении с помощью фильтров, чтоб не было видно явного применения вспышек. А так же, как сымитировать фильтр на площадке с помощью обычной двери, как направить узкий пучок света в нужное место.
• С какими настройками снимать в солнечный день. Как нарисовать вспышкой солнечный зайчик. Как эффектно и незаметно для зрителя дополнить солнечный свет. Снять отражение в луже, сделав удачный акцент на моделях. Как выгодно подчеркнуть окружающую геометрию и фактуру.
• И, наконец, как общаться с моделями на съемке: раскрепощение пары и позитив от Лёши.

Mediainfo:

Общее
Полное имя : E:\photo\Алексей Гайдин - Работа со вспышками. Практика\03_Голая вспышка.mp4
Формат : MPEG-4
Профиль формата : Base Media / Version 2
Идентификатор кодека : mp42 (mp42/mp41/isom/avc1)
Размер файла : 1,25 Гбайт
Продолжительность : 34 м. 8 с.
Режим общего битрейта : Переменный
Общий поток : 5237 Кбит/сек
Дата кодирования : UTC 2018-04-18 05:55:00
Дата пометки : UTC 2018-04-18 05:55:00
Видео
Идентификатор : 1
Формат : AVC
Формат/Информация : Advanced Video Codec
Профиль формата : High@L4
Настройки формата : CABAC / 5 Ref Frames
Параметр CABAC формата : Да
Параметр RefFrames формата : 5 кадров
Идентификатор кодека : avc1
Идентификатор кодека/Информация : Advanced Video Coding
Продолжительность : 34 м. 8 с.
Битрейт : 5000 Кбит/сек
Ширина : 1920 пикселей
Высота : 1080 пикселей
Соотношение сторон : 16:9
Режим частоты кадров : Постоянный
Частота кадров : 30,000 кадров/сек
Цветовое пространство : YUV
Субдискретизация насыщенности : 4:2:0
Битовая глубина : 8 бит
Тип развёртки : Прогрессивная
Бит/(Пиксели*Кадры) : 0.080
Размер потока : 1,19 Гбайт (95%)
Библиотека кодирования : x264 core 155 r10 7d0ff22
Настройки программы : cabac=1 / ref=5 / deblock=1:0:0 / analyse=0x3:0x113 / me=hex / subme=8 / psy=1 / psy_rd=1.00:0.00 / mixed_ref=1 / me_range=16 / chroma_me=1 / trellis=2 / 8x8dct=1 / cqm=0 / deadzone=21,11 / fast_pskip=1 / chroma_qp_offset=-2 / threads=34 / lookahead_threads=5 / sliced_threads=0 / nr=0 / decimate=1 / interlaced=0 / bluray_compat=0 / stitchable=1 / constrained_intra=0 / bframes=3 / b_pyramid=2 / b_adapt=2 / b_bias=0 / direct=3 / weightb=1 / open_gop=0 / weightp=2 / keyint=infinite / keyint_min=30 / scenecut=40 / intra_refresh=0 / rc_lookahead=50 / rc=2pass / mbtree=1 / bitrate=5000 / ratetol=1.0 / qcomp=0.60 / qpmin=5 / qpmax=69 / qpstep=4 / cplxblur=20.0 / qblur=0.5 / vbv_maxrate=5500 / vbv_bufsize=15000 / nal_hrd=none / filler=0 / ip_ratio=1.40 / aq=1:1.00
Дата кодирования : UTC 2018-04-18 05:55:00
Дата пометки : UTC 2018-04-18 05:55:00
Цветовой диапазон : Limited
Основные цвета : BT.709
Характеристики трансфера : BT.709
Коэффициенты матрицы : BT.709
Аудио
Идентификатор : 2
Формат : AAC
Формат/Информация : Advanced Audio Codec
Профиль формата : LC
Идентификатор кодека : mp4a-40-2
Продолжительность : 34 м. 8 с.
Вид битрейта : Переменный
Битрейт : 256 Кбит/сек
Каналы : 2 канала
Расположение каналов : Front: L R
Частота : 48,0 КГц
Частота кадров : 46,875 кадров/сек (1024 SPF)
Метод сжатия : С потерями
Размер потока : 62,5 Мбайт (5%)
Дата кодирования : UTC 2018-04-18 05:55:00
Дата пометки : UTC 2018-04-18 05:55:00
Скриншоты:
Скачать .torrent

Для того, чтобы скачать торрент-файл

Алексей Гайдин - Работа со вспышками. Практика (2018)

с нашего сайта, Вам необходимо Войти на сайт под своим логином! Если у Вас ещё нет логина, тогда Вам нужно сначала Зарегистрироваться!

Как скачивать? · Что такое торрент? · Рейтинг и ограничения

Показать сообщения:    
Ответить на тему

Алексей Гайдин - Работа со вспышками. Практика (2018) скачать торрент (torrent), видеоуроки, тренинги, обучающее видео и видеокурсы

Текущее время: Сегодня 22:19

Часовой пояс: GMT + 4



Вы не можете начинать темы
Вы не можете отвечать на сообщения
Вы не можете редактировать свои сообщения
Вы не можете удалять свои сообщения
Вы не можете голосовать в опросах
Вы не можете прикреплять файлы к сообщениям
Вы не можете скачивать файлы