ProfIT - PHP-2 Профессиональное программирование (2018)

Ответить на тему
 
Автор Сообщение

Yulya ®

ProfIT | PHP-2 Профессиональное программирование (2018) PCRec [H.264/1080p-LQ] - Автор (режиссер): ProfIT
Производство: Альберт Степанцев
Жанр: Программирование, PHP
Описание:
Второй курс для тех, кто хочет сделать программирование на PHP своей профессией и изменить свою жизнь к лучшему. В этом курсе - только самое нужное. Мало теории, почти ничего - для новичков, зато очень много самых современных практик от лучших практиков!
Курс посвящен последовательному построению веб-приложения на основе архитектурной модели MVC с нуля и до полноценного работающего сайта. Попутно уделяется время изучению сложных понятий ООП в современном PHP.
В курс также входит обзор современных фреймворков для веб-программистов.
Продолжительность: 10:18:14
Качество видео: PCRec
Видео: AVC/H.264, 1920x1040, ~519-619 Kbps
Аудио: AAC, 2 ch, 235 Kbps

Mediainfo:

Общее
Полное имя : .\01 Модели данных и ООП\2018-03-23 Курс «PHP-2_ Профессиональное программирование» Урок 1.mp4
Формат : MPEG-4
Профиль формата : Base Media / Version 2
Идентификатор кодека : mp42 (mp42/mp41/isom/avc1)
Размер файла : 435 Мбайт
Продолжительность : 1 ч. 20 м.
Режим общего битрейта : Переменный
Общий поток : 759 Кбит/сек
Дата кодирования : UTC 2018-03-23 18:54:38
Дата пометки : UTC 2018-03-23 18:54:38
Видео
Идентификатор : 1
Формат : AVC
Формат/Информация : Advanced Video Codec
Профиль формата : High@L4
Настройки формата : CABAC / 5 Ref Frames
Параметр CABAC формата : Да
Параметр RefFrames формата : 5 кадров
Идентификатор кодека : avc1
Идентификатор кодека/Информация : Advanced Video Coding
Продолжительность : 1 ч. 20 м.
Битрейт : 520 Кбит/сек
Ширина : 1920 пикселей
Высота : 1040 пикселей
Соотношение сторон : 1,85:1
Режим частоты кадров : Постоянный
Частота кадров : 25,000 кадров/сек
Цветовое пространство : YUV
Субдискретизация насыщенности : 4:2:0
Битовая глубина : 8 бит
Тип развёртки : Прогрессивная
Бит/(Пиксели*Кадры) : 0.010
Размер потока : 298 Мбайт (68%)
Библиотека кодирования : x264 core 155 r10 7d0ff22
Настройки программы : cabac=1 / ref=5 / deblock=1:0:0 / analyse=0x3:0x113 / me=hex / subme=8 / psy=1 / psy_rd=1.00:0.00 / mixed_ref=1 / me_range=16 / chroma_me=1 / trellis=2 / 8x8dct=1 / cqm=0 / deadzone=21,11 / fast_pskip=1 / chroma_qp_offset=-2 / threads=32 / lookahead_threads=5 / sliced_threads=0 / nr=0 / decimate=1 / interlaced=0 / bluray_compat=0 / stitchable=1 / constrained_intra=0 / bframes=3 / b_pyramid=2 / b_adapt=2 / b_bias=0 / direct=3 / weightb=1 / open_gop=0 / weightp=2 / keyint=infinite / keyint_min=25 / scenecut=40 / intra_refresh=0 / rc_lookahead=50 / rc=crf / mbtree=1 / crf=20.0 / qcomp=0.60 / qpmin=5 / qpmax=69 / qpstep=4 / vbv_maxrate=5500 / vbv_bufsize=15000 / crf_max=0.0 / nal_hrd=none / filler=0 / ip_ratio=1.40 / aq=1:1.00
Дата кодирования : UTC 2018-03-23 18:54:38
Дата пометки : UTC 2018-03-23 18:54:38
Цветовой диапазон : Limited
Основные цвета : BT.709
Характеристики трансфера : BT.709
Коэффициенты матрицы : BT.709
Аудио
Идентификатор : 2
Формат : AAC
Формат/Информация : Advanced Audio Codec
Профиль формата : LC
Идентификатор кодека : mp4a-40-2
Продолжительность : 1 ч. 20 м.
Вид битрейта : Переменный
Битрейт : 235 Кбит/сек
Каналы : 2 канала
Расположение каналов : Front: L R
Частота : 48,0 КГц
Частота кадров : 46,875 кадров/сек (1024 SPF)
Метод сжатия : С потерями
Размер потока : 135 Мбайт (31%)
Дата кодирования : UTC 2018-03-23 18:54:38
Дата пометки : UTC 2018-03-23 18:54:38

Дополнительная информация:

Модули курса (уроки):
1. Модели данных и ООП
2. Продолжение разговора о моделях
3. Изоляция уровня представления
4. Контроллеры и фронт-контроллер
5. Исключения
6. Современные стандарты PHP
7. "Новые" возможности PHP
8. Обзор современных фреймворков
Скриншоты:
Скачать .torrent

Для того, чтобы скачать торрент-файл

ProfIT - PHP-2 Профессиональное программирование (2018)

с нашего сайта, Вам необходимо Войти на сайт под своим логином! Если у Вас ещё нет логина, тогда Вам нужно сначала Зарегистрироваться!

Как скачивать? · Что такое торрент? · Рейтинг и ограничения

Показать сообщения:    
Ответить на тему

ProfIT - PHP-2 Профессиональное программирование (2018) скачать торрент (torrent), видеоуроки, тренинги, обучающее видео и видеокурсы

Текущее время: Сегодня 09:36

Часовой пояс: GMT + 4



Вы не можете начинать темы
Вы не можете отвечать на сообщения
Вы не можете редактировать свои сообщения
Вы не можете удалять свои сообщения
Вы не можете голосовать в опросах
Вы не можете прикреплять файлы к сообщениям
Вы не можете скачивать файлы