Ron Howard - Рон Ховард учит режиссуре / Ron Howard Teaches Directing (2018)

Ответить на тему
 
Автор Сообщение

Yulya ®

Ron Howard | Рон Ховард учит режиссуре / Ron Howard Teaches Directing (2018) HDRip [H.264] [EN]- Автор (режиссер): Ron Howard
Производство: MasterClass.com
Жанр: Искусство режиссуры
Описание:
Описание: Рон Ховард создал свой первый фильм за 22 дня имея $602,000. Сегодня, его фильмы собрали более $1.8 миллиарда. В своём самом первом онлайн классе, оскароносный режиссёр фильмов «Аполло 13» и «Игры разума» объясняет режиссёрское ремесло как никогда раньше. В своих уроках и воркшопах со съемочной площадки, вы научитесь тому как оценивать идеи, работать с актёрами, планировать сцены и привносить своё видение на экран, будь то экран ноутбука или кинотеатра IMAX.
Продолжительность: 07:45:13
Качество видео: HDRip
Язык: Английский
Видео: AVC/H.264, 1280x720, ~1082 kbps
Аудио: AAC, 2 ch, 125 kbps

Mediainfo:

General
Complete name : /Users/dmitry.epom/Downloads/Masterclass Ron Howard Teaches Directing/101 - Intro.mp4
Format : MPEG-4
Format profile : Base Media
Codec ID : isom (isom/iso2/avc1/mp41)
File size : 21.2 MiB
Duration : 2 min 26 s
Overall bit rate mode : Variable
Overall bit rate : 1 213 kb/s
Writing application : Lavf56.25.101
Video
ID : 1
Format : AVC
Format/Info : Advanced Video Codec
Format profile : High@L3.1
Format settings : CABAC / 4 Ref Frames
Format settings, CABAC : Yes
Format settings, ReFrames : 4 frames
Codec ID : avc1
Codec ID/Info : Advanced Video Coding
Duration : 2 min 26 s
Bit rate : 1 082 kb/s
Width : 1 280 pixels
Height : 720 pixels
Display aspect ratio : 16:9
Frame rate mode : Constant
Frame rate : 23.976 (24000/1001) FPS
Color space : YUV
Chroma subsampling : 4:2:0
Bit depth : 8 bits
Scan type : Progressive
Bits/(Pixel*Frame) : 0.049
Stream size : 18.9 MiB (89%)
Writing library : x264 core 146
Encoding settings : cabac=1 / ref=3 / deblock=1:0:0 / analyse=0x3:0x113 / me=hex / subme=7 / psy=1 / psy_rd=1.00:0.00 / mixed_ref=1 / me_range=16 / chroma_me=1 / trellis=1 / 8x8dct=1 / cqm=0 / deadzone=21,11 / fast_pskip=1 / chroma_qp_offset=-2 / threads=12 / lookahead_threads=2 / sliced_threads=0 / nr=0 / decimate=1 / interlaced=0 / bluray_compat=0 / constrained_intra=0 / bframes=3 / b_pyramid=2 / b_adapt=1 / b_bias=0 / direct=1 / weightb=1 / open_gop=0 / weightp=2 / keyint=250 / keyint_min=23 / scenecut=40 / intra_refresh=0 / rc_lookahead=40 / rc=crf / mbtree=1 / crf=23.0 / qcomp=0.60 / qpmin=0 / qpmax=69 / qpstep=4 / ip_ratio=1.40 / aq=1:1.00
Audio
ID : 2
Format : AAC
Format/Info : Advanced Audio Codec
Format profile : LC
Codec ID : mp4a-40-2
Duration : 2 min 26 s
Bit rate mode : Variable
Bit rate : 125 kb/s
Maximum bit rate : 128 kb/s
Channel(s) : 2 channels
Channel positions : Front: L R
Sampling rate : 44.1 kHz
Frame rate : 43.066 FPS (1024 SPF)
Compression mode : Lossy
Stream size : 2.18 MiB (10%)
Default : Yes
Alternate group : 1
Скриншоты:
Скачать .torrent

Для того, чтобы скачать торрент-файл

Ron Howard - Рон Ховард учит режиссуре / Ron Howard Teaches Directing (2018)

с нашего сайта, Вам необходимо Войти на сайт под своим логином! Если у Вас ещё нет логина, тогда Вам нужно сначала Зарегистрироваться!

Как скачивать? · Что такое торрент? · Рейтинг и ограничения

Показать сообщения:    
Ответить на тему

Ron Howard - Рон Ховард учит режиссуре / Ron Howard Teaches Directing (2018) скачать торрент (torrent), видеоуроки, тренинги, обучающее видео и видеокурсы

Текущее время: Сегодня 09:30

Часовой пояс: GMT + 4



Вы не можете начинать темы
Вы не можете отвечать на сообщения
Вы не можете редактировать свои сообщения
Вы не можете удалять свои сообщения
Вы не можете голосовать в опросах
Вы не можете прикреплять файлы к сообщениям
Вы не можете скачивать файлы