Surgical Techniques in Ophthalmology - Хирургические техники в офтальмологии [6 DVD] (2013-2016)

Ответить на тему
 
Автор Сообщение

Yulya ®

Surgical Techniques in Ophthalmology | Хирургические техники в офтальмологии [6 DVD] (2013-2016) DVDRip - Производство: Surgical Techniques in Ophthalmology. США
Жанр: Хирургия, Офтальмология
Описание:
DVD приложения (6 DVD) к серии книг «Хирургические техники в офтальмологии» охватывает основные элементы хирургического подхода к глазным заболеваниям. Данные приложения представля­ют базовые принципы для каждой отдельно взятой хирургической техники где перечислены необходимые для операции инструменты и оборудование, а также показания и противопоказания к хирургическим вмешательствам, поша­гово описаны хирургические техники, рассмотрены осложнения и послеопера­ционное ведение. Основная цель данного материала - поделиться практическими знаниями. DVD, содержат видео-(и) аудиоматериал, позволяющий пользователям увидеть ход операции "глазами хирурга".

В серию входят (DVD приложения):

• «1. Хирургия глаукомы»
Ориг. название: Glaucoma Surgery: Surgical Techniques in Ophthalmology
Год выпуска: 2013
ISBN: 978-5-98657-042-6, 978-1-4160-3021-8
• «2. Хирургия косоглазия»
Ориг. название: Strabismus Surgery: Surgical Techniques in Ophthalmology
Год выпуска: 2014
ISBN: 978-5-98657-047-1
• «3. Окулопластика»
Ориг. название: Oculoplastic Surgery
Год выпуска: 2015
ISBN: 978-5-98657-046-4, 978-1-4160-3286-1
• 4. Хирургия катаракты»
Ориг. название: Cataract Surgery
Автор: Ларри Бенджамин
Год выпуска: 2016
ISBN: 978-5-98657-043-3, 978-1-4160-2969-4
• «5. Рефракционная хирургия»
Ориг. название: Refractive Surgery
Год выпуска: 2016
ISBN: 978-5-98657-044-0, 978-1-4160-3022-5
• «6. Витреоретинальная хирургия»
Ориг. название: Retina and Vitreous Surgery: Surgical Techniques in Ophthalmology
Год выпуска: 2013
ISBN: 978-5-98657-045-7, 978-1-4160-4206-8
Формат видео: MOV
Продолжительность: 13:49:12
Качество видео: DVDRip
Видео: MPEG4, 640x480, ~2068 Kbps
Аудио: AAC, 2 ch, 1530Kbps

Mediainfo:

Общее
Полное имя : 01-01.mov
Формат : MPEG-4
Профиль формата : QuickTime
Идентификатор кодека : qt 2005.03 (qt )
Размер файла : 48,0 Мбайт
Продолжительность : 1 м. 51 с.
Режим общего битрейта : Постоянный
Общий поток : 3605 Кбит/сек
Дата кодирования : UTC 2013-11-06 10:24:46
Дата пометки : UTC 2013-11-06 10:24:46
Программа кодирования : Lavf54.59.107
Библиотека кодирования : Apple QuickTime
Видео
Идентификатор : 1
Формат : MPEG-4 Visual
Профиль формата : Simple@L1
Параметр BVOP формата : Нет
Параметр QPel формата : Нет
Параметр GMC формата : Без точки перехода
Параметр матрицы формата : Default (H.263)
Идентификатор кодека : mp4v-20
Продолжительность : 1 м. 51 с.
Вид битрейта : Постоянный
Битрейт : 2068 Кбит/сек
Ширина : 640 пикселей
Высота : 480 пикселей
Соотношение сторон : 4:3
Режим частоты кадров : Постоянный
Частота кадров : 29,970 (29970/1000) кадров/сек
Цветовое пространство : YUV
Субдискретизация насыщенности : 4:2:0
Битовая глубина : 8 бит
Тип развёртки : Прогрессивная
Метод сжатия : С потерями
Бит/(Пиксели*Кадры) : 0.225
Размер потока : 27,5 Мбайт (57%)
Заголовок : Обработчик видео Apple / Обработчик псевдонимов Apple
Библиотека кодирования : Lavc54.86.100
Язык : English
Дата пометки : UTC 2013-11-06 10:24:46
Аудио
Идентификатор : 3
Формат : PCM
Настройки формата : Little / Signed
Идентификатор кодека : sowt
Продолжительность : 1 м. 51 с.
Вид битрейта : Постоянный
Битрейт : 1536 Кбит/сек
Каналы : 2 канала
Расположение каналов : Front: L R
Частота : 48,0 КГц
Битовая глубина : 16 бит
Размер потока : 20,4 Мбайт (43%)
Заголовок : Обработчик звука Apple / Обработчик псевдонимов Apple
Язык : English
Дата кодирования : UTC 2013-11-06 10:24:45
Дата пометки : UTC 2013-11-06 10:24:46
Скриншоты:
Скачать .torrent

Для того, чтобы скачать торрент-файл

Surgical Techniques in Ophthalmology - Хирургические техники в офтальмологии [6 DVD] (2013-2016)

с нашего сайта, Вам необходимо Войти на сайт под своим логином! Если у Вас ещё нет логина, тогда Вам нужно сначала Зарегистрироваться!

Как скачивать? · Что такое торрент? · Рейтинг и ограничения

Показать сообщения:    
Ответить на тему

Surgical Techniques in Ophthalmology - Хирургические техники в офтальмологии [6 DVD] (2013-2016) скачать торрент (torrent), видеоуроки, тренинги, обучающее видео и видеокурсы

Текущее время: Сегодня 19:17

Часовой пояс: GMT + 4



Вы не можете начинать темы
Вы не можете отвечать на сообщения
Вы не можете редактировать свои сообщения
Вы не можете удалять свои сообщения
Вы не можете голосовать в опросах
Вы не можете прикреплять файлы к сообщениям
Вы не можете скачивать файлы