Академия верстки - Javascript для верстальщика (2018)

Ответить на тему
 
Автор Сообщение

Yulya ®

Академия верстки | Javascript для верстальщика (2018) PCRec [H.264] - Автор (режиссер): Иван Петриченко
Производство: Академия верстки
Жанр: Программирование, JavaScript
Описание:
Весь учебный процесс разделён на четыре больших модуля:
- первые три посвящены обучению: каждый теоретический урок ты будешь тут же закреплять на практике. С каждым уроком ты будешь использовать всё больше знаний и выполнять всё более сложные задачи;
- четвёртый модуль - большая практика. Здесь ты будешь писать дипломную работу, используя всё то, что узнал о JavaScript на курсе.
Продолжительность: 13:24:06
Качество видео: PCRec
Видео: AVC/H.264, 1280x720-1920x1080, ~63-749 Kbps
Аудио: AAC, 2 ch, 125-256 Kbps

Mediainfo:

Общее
Полное имя : .\Диплом\Инструкция по выпускной работе в Trello.mp4
Формат : MPEG-4
Профиль формата : Base Media / Version 2
Идентификатор кодека : mp42 (isom/mp42)
Размер файла : 12,4 Мбайт
Продолжительность : 8 м. 57 с.
Режим общего битрейта : Переменный
Общий поток : 193 Кбит/сек
Дата кодирования : UTC 2017-10-21 09:05:30
Дата пометки : UTC 2017-10-21 09:05:30
gsst : 0
gstd : 537797
Видео
Идентификатор : 1
Формат : AVC
Формат/Информация : Advanced Video Codec
Профиль формата : Main@L3.1
Настройки формата : CABAC / 3 Ref Frames
Параметр CABAC формата : Да
Параметр RefFrames формата : 3 кадра
Идентификатор кодека : avc1
Идентификатор кодека/Информация : Advanced Video Coding
Продолжительность : 8 м. 57 с.
Битрейт : 63,9 Кбит/сек
Ширина : 1280 пикселей
Высота : 720 пикселей
Соотношение сторон : 16:9
Режим частоты кадров : Постоянный
Частота кадров : 29,970 (30000/1001) кадров/сек
Цветовое пространство : YUV
Субдискретизация насыщенности : 4:2:0
Битовая глубина : 8 бит
Тип развёртки : Прогрессивная
Бит/(Пиксели*Кадры) : 0.002
Размер потока : 4,09 Мбайт (33%)
Заголовок : ISO Media file produced by Google Inc. Created on: 10/21/2017.
Дата кодирования : UTC 2017-10-21 09:05:30
Дата пометки : UTC 2017-10-21 09:05:30
Цветовой диапазон : Limited
Основные цвета : BT.709
Характеристики трансфера : BT.709
Коэффициенты матрицы : BT.709
Аудио
Идентификатор : 2
Формат : AAC
Формат/Информация : Advanced Audio Codec
Профиль формата : LC
Идентификатор кодека : mp4a-40-2
Продолжительность : 8 м. 57 с.
Вид битрейта : Переменный
Битрейт : 126 Кбит/сек
Каналы : 2 канала
Расположение каналов : Front: L R
Частота : 44,1 КГц
Частота кадров : 43,066 кадра/сек (1024 SPF)
Метод сжатия : С потерями
Размер потока : 8,05 Мбайт (65%)
Заголовок : ISO Media file produced by Google Inc. Created on: 10/21/2017.
Дата кодирования : UTC 2017-10-21 09:05:30
Дата пометки : UTC 2017-10-21 09:05:30
Общее
Полное имя : .\Урок 10 - Особенности современного стандарта. Тренды. Интерполяция\Стандарты. Тренды. Интерполяция.mp4
Формат : MPEG-4
Профиль формата : Base Media
Идентификатор кодека : isom (isom/iso2/avc1/mp41)
Размер файла : 90,5 Мбайт
Продолжительность : 21 м. 54 с.
Общий поток : 577 Кбит/сек
Программа кодирования : Lavf57.25.100
Видео
Идентификатор : 1
Формат : AVC
Формат/Информация : Advanced Video Codec
Профиль формата : High@L4
Настройки формата : CABAC / 5 Ref Frames
Параметр CABAC формата : Да
Параметр RefFrames формата : 5 кадров
Идентификатор кодека : avc1
Идентификатор кодека/Информация : Advanced Video Coding
Продолжительность : 21 м. 54 с.
Битрейт : 313 Кбит/сек
Ширина : 1920 пикселей
Высота : 1080 пикселей
Соотношение сторон : 16:9
Режим частоты кадров : Постоянный
Частота кадров : 30,000 кадров/сек
Цветовое пространство : YUV
Субдискретизация насыщенности : 4:2:0
Битовая глубина : 8 бит
Тип развёртки : Прогрессивная
Бит/(Пиксели*Кадры) : 0.005
Размер потока : 49,0 Мбайт (54%)
Библиотека кодирования : x264 core 155 r10 7d0ff22
Настройки программы : cabac=1 / ref=5 / deblock=1:0:0 / analyse=0x3:0x113 / me=hex / subme=8 / psy=1 / psy_rd=1.00:0.00 / mixed_ref=1 / me_range=16 / chroma_me=1 / trellis=2 / 8x8dct=1 / cqm=0 / deadzone=21,11 / fast_pskip=1 / chroma_qp_offset=-2 / threads=34 / lookahead_threads=5 / sliced_threads=0 / nr=0 / decimate=1 / interlaced=0 / bluray_compat=0 / stitchable=1 / constrained_intra=0 / bframes=3 / b_pyramid=2 / b_adapt=2 / b_bias=0 / direct=3 / weightb=1 / open_gop=0 / weightp=2 / keyint=infinite / keyint_min=30 / scenecut=40 / intra_refresh=0 / rc_lookahead=50 / rc=2pass / mbtree=1 / bitrate=313 / ratetol=1.0 / qcomp=0.60 / qpmin=5 / qpmax=69 / qpstep=4 / cplxblur=20.0 / qblur=0.5 / vbv_maxrate=5500 / vbv_bufsize=15000 / nal_hrd=none / filler=0 / ip_ratio=1.40 / aq=1:1.00
Цветовой диапазон : Limited
Основные цвета : BT.709
Характеристики трансфера : BT.709
Коэффициенты матрицы : BT.709
Аудио
Идентификатор : 2
Формат : AAC
Формат/Информация : Advanced Audio Codec
Профиль формата : LC
Идентификатор кодека : mp4a-40-2
Продолжительность : 21 м. 54 с.
Вид битрейта : Постоянный
Битрейт : 256 Кбит/сек
Каналы : 2 канала
Расположение каналов : Front: L R
Частота : 48,0 КГц
Частота кадров : 46,875 кадров/сек (1024 SPF)
Метод сжатия : С потерями
Размер потока : 40,1 Мбайт (44%)
Default : Да
AlternateGroup/String : 1

Дополнительная информация:

В раздаче имеются архивы! В них содержится дополнительные материалы.
Скриншоты:
Скачать .torrent

Для того, чтобы скачать торрент-файл

Академия верстки - Javascript для верстальщика (2018)

с нашего сайта, Вам необходимо Войти на сайт под своим логином! Если у Вас ещё нет логина, тогда Вам нужно сначала Зарегистрироваться!

Как скачивать? · Что такое торрент? · Рейтинг и ограничения

Показать сообщения:    
Ответить на тему

Академия верстки - Javascript для верстальщика (2018) скачать торрент (torrent), видеоуроки, тренинги, обучающее видео и видеокурсы

Текущее время: Сегодня 04:46

Часовой пояс: GMT + 4



Вы не можете начинать темы
Вы не можете отвечать на сообщения
Вы не можете редактировать свои сообщения
Вы не можете удалять свои сообщения
Вы не можете голосовать в опросах
Вы не можете прикреплять файлы к сообщениям
Вы не можете скачивать файлы