Анастасия Божок - ИНТЕНСИВ-ПП: Заряд «ВРЕМЕНАМИ» – Прицельная Практика (2017)

Ответить на тему
 
Автор Сообщение

Yulya ®

Анастасия Божок | ИНТЕНСИВ-ПП: Заряд «ВРЕМЕНАМИ» – Прицельная Практика (2017) PCRec - Автор (режиссер): Анастасия Божок
Производство: DRAGON-ENGLISH
Жанр: Видеокурс
Описание:
Объяснение английских времен проходит по авторской методике, которая помогает сформировать и запомнить цельные словарные обороты. Анастасия рассказывает о принципах построения предложений и употреблении времен в английском. Постепенно занимаясь, вы осознаете логику применения правил и даже начнете думать, как англоязычные люди.
Продолжительность: 07.00.00.
Качество видео: PCRec
Видео: AVC/H.264, 1280x720, ~~113 Kbps
Аудио: AAC, 2 ch, 126 Kbps, 48.0 KHz

Mediainfo:

General
Complete name : I:\nov_intensiv_vremena\Part_1\Блок 1 часть 1.mp4
Format : MPEG-4
Format profile : Base Media
Codec ID : isom (isom/iso2/avc1/mp41)
File size : 21.0 MiB
Duration : 12mn 43s
Overall bit rate : 231 Kbps
Writing application : Lavf57.56.100
Video
ID : 1
Format : AVC
Format/Info : Advanced Video Codec
Format profile : High@L3.1
Format settings, CABAC : Yes
Format settings, ReFrames : 4 frames
Codec ID : avc1
Codec ID/Info : Advanced Video Coding
Duration : 12mn 43s
Bit rate : 98.7 Kbps
Width : 1 280 pixels
Height : 720 pixels
Display aspect ratio : 16:9
Frame rate mode : Constant
Frame rate : 25.000 fps
Color space : YUV
Chroma subsampling : 4:2:0
Bit depth : 8 bits
Scan type : Progressive
Bits/(Pixel*Frame) : 0.004
Stream size : 8.98 MiB (43%)
Writing library : x264 core 148 r2744 b97ae06
Encoding settings : cabac=1 / ref=1 / deblock=1:0:0 / analyse=0x3:0x3 / me=dia / subme=1 / psy=1 / psy_rd=1.00:0.00 / mixed_ref=0 / me_range=16 / chroma_me=1 / trellis=0 / 8x8dct=1 / cqm=0 / deadzone=21,11 / fast_pskip=1 / chroma_qp_offset=0 / threads=6 / lookahead_threads=1 / sliced_threads=0 / nr=0 / decimate=1 / interlaced=0 / bluray_compat=0 / constrained_intra=0 / bframes=3 / b_pyramid=2 / b_adapt=1 / b_bias=0 / direct=1 / weightb=1 / open_gop=0 / weightp=1 / keyint=250 / keyint_min=25 / scenecut=40 / intra_refresh=0 / rc=crf / mbtree=0 / crf=30.0 / qcomp=0.60 / qpmin=0 / qpmax=69 / qpstep=4 / ip_ratio=1.40 / pb_ratio=1.30 / aq=1:1.00
Audio
ID : 2
Format : AAC
Format/Info : Advanced Audio Codec
Format profile : LC
Codec ID : 40
Duration : 12mn 43s
Bit rate mode : Constant
Bit rate : 126 Kbps
Channel(s) : 2 channels
Channel positions : Front: L R
Sampling rate : 44.1 KHz
Frame rate : 43.066 fps (1024 spf)
Compression mode : Lossy
Stream size : 11.4 MiB (54%)
Default : Yes
Alternate group : 1

Дополнительная информация:

ВАШ ГЛАВНЫЙ РЕЗУЛЬТАТ
Вы увидите полную картину системы «времён» и получите крепкую базу, на которую сможете накладывать другие темы.
У Вас будет получаться строить грамотные фразы, даже если Вы уже 1 000 000 раз пытались разобраться во «временах», но до сих пор ничего в них не понимаете…
Если Вы ходите к репетитору, то он будет сильно удивлён и озадачен, увидев Ваш резкий прогресс – это Вас вдохновит сильнее, чем всё, что только можно вообразить!
Скриншоты:
Скачать .torrent

Для того, чтобы скачать торрент-файл

Анастасия Божок - ИНТЕНСИВ-ПП: Заряд «ВРЕМЕНАМИ» – Прицельная Практика (2017)

с нашего сайта, Вам необходимо Войти на сайт под своим логином! Если у Вас ещё нет логина, тогда Вам нужно сначала Зарегистрироваться!

Как скачивать? · Что такое торрент? · Рейтинг и ограничения

Показать сообщения:    
Ответить на тему

Анастасия Божок - ИНТЕНСИВ-ПП: Заряд «ВРЕМЕНАМИ» – Прицельная Практика (2017) скачать торрент (torrent), видеоуроки, тренинги, обучающее видео и видеокурсы

Текущее время: Сегодня 07:33

Часовой пояс: GMT + 4



Вы не можете начинать темы
Вы не можете отвечать на сообщения
Вы не можете редактировать свои сообщения
Вы не можете удалять свои сообщения
Вы не можете голосовать в опросах
Вы не можете прикреплять файлы к сообщениям
Вы не можете скачивать файлы