HTML Academy - Интенсивный онлайн‑курс Профессиональный PHP, уровень 1 (2018)

Ответить на тему
 
Автор Сообщение

Yulya ®

HTML Academy | Интенсивный онлайн‑курс Профессиональный PHP, уровень 1 (2018) PCRec - Автор (режиссер): Кирилл Сенкевич
Производство: HTML Academy
Жанр: Программирование, PHP
Описание:
Интенсив рассчитан на новичков без навыков программирования. Для прохождения интенсива желательны навыки HTML и CSS, для получения которых достаточно пройти бесплатные интерактивные курсы на HTML Academy.
Продолжительность: 16:49:21
Качество видео: PCRec
Видео: AVC/H.264, 1400x808-1440x900, ~417-3098 Kbps
Аудио: AAC, 2 ch, 142-194 Kbps

Mediainfo:

Общее
Полное имя : .\00 Git\02 Как сделать репозиторий из любого проекта.mp4
Формат : MPEG-4
Профиль формата : Base Media
Идентификатор кодека : isom (mp41)
Размер файла : 139 Мбайт
Продолжительность : 7 м. 45 с.
Режим общего битрейта : Переменный
Общий поток : 2505 Кбит/сек
Дата кодирования : UTC 2018-02-07 19:27:47
Дата пометки : UTC 2018-02-07 19:27:47
Программа кодирования : BandiMp4Muxer 1.0
Видео
Идентификатор : 1
Формат : AVC
Формат/Информация : Advanced Video Codec
Профиль формата : Main@L3.2
Настройки формата : CABAC / 1 Ref Frames
Параметр CABAC формата : Да
Параметр RefFrames формата : 1 кадр
Идентификатор кодека : avc1
Идентификатор кодека/Информация : Advanced Video Coding
Продолжительность : 7 м. 45 с.
Битрейт : 2321 Кбит/сек
Ширина : 1400 пикселей
Высота : 808 пикселей
Соотношение сторон : 1,733
Режим частоты кадров : Переменный
Частота кадров : 30,000 кадров/сек
Минимальная частота кадров : 15,000 кадров/сек
Максимальная частота кадров : 30,030 кадров/сек
Цветовое пространство : YUV
Субдискретизация насыщенности : 4:2:0
Битовая глубина : 8 бит
Тип развёртки : Прогрессивная
Бит/(Пиксели*Кадры) : 0.068
Размер потока : 129 Мбайт (93%)
Язык : English
Дата кодирования : UTC 2018-02-07 19:27:47
Дата пометки : UTC 2018-02-07 19:27:47
Аудио
Идентификатор : 2
Формат : AAC
Формат/Информация : Advanced Audio Codec
Профиль формата : LC
Идентификатор кодека : mp4a-40-2
Продолжительность : 7 м. 45 с.
Duration_LastFrame : -21 мс.
Вид битрейта : Переменный
Битрейт : 175 Кбит/сек
Максимальный битрейт : 325 Кбит/сек
Каналы : 2 канала
Расположение каналов : Front: L R
Частота : 48,0 КГц
Частота кадров : 46,875 кадров/сек (1024 SPF)
Метод сжатия : С потерями
Размер потока : 9,74 Мбайт (7%)
Язык : English
Дата кодирования : UTC 2018-02-07 19:27:47
Дата пометки : UTC 2018-02-07 19:27:47
Общее
Полное имя : .\05 Хранение состояния и аутентификация\05 Хранение состояния и аутентификация.mp4
Формат : MPEG-4
Профиль формата : Base Media
Идентификатор кодека : isom (mp41)
Размер файла : 507 Мбайт
Продолжительность : 1 ч. 40 м.
Режим общего битрейта : Переменный
Общий поток : 706 Кбит/сек
Дата кодирования : UTC 2018-03-15 10:47:54
Дата пометки : UTC 2018-03-15 10:47:54
Программа кодирования : BandiMp4Muxer 1.0
Видео
Идентификатор : 1
Формат : AVC
Формат/Информация : Advanced Video Codec
Профиль формата : Main@L3.2
Настройки формата : CABAC / 1 Ref Frames
Параметр CABAC формата : Да
Параметр RefFrames формата : 1 кадр
Идентификатор кодека : avc1
Идентификатор кодека/Информация : Advanced Video Coding
Продолжительность : 1 ч. 40 м.
Битрейт : 504 Кбит/сек
Ширина : 1424 пикселя
Высота : 824 пикселя
Соотношение сторон : 1,728
Режим частоты кадров : Переменный
Частота кадров : 30,000 кадров/сек
Минимальная частота кадров : 14,993 кадров/сек
Максимальная частота кадров : 30,030 кадров/сек
Цветовое пространство : YUV
Субдискретизация насыщенности : 4:2:0
Битовая глубина : 8 бит
Тип развёртки : Прогрессивная
Бит/(Пиксели*Кадры) : 0.014
Размер потока : 362 Мбайт (71%)
Язык : English
Дата кодирования : UTC 2018-03-15 10:47:54
Дата пометки : UTC 2018-03-15 10:47:54
Аудио
Идентификатор : 2
Формат : AAC
Формат/Информация : Advanced Audio Codec
Профиль формата : LC
Идентификатор кодека : mp4a-40-2
Продолжительность : 1 ч. 40 м.
Duration_LastFrame : -21 мс.
Вид битрейта : Переменный
Битрейт : 192 Кбит/сек
Максимальный битрейт : 286 Кбит/сек
Каналы : 2 канала
Расположение каналов : Front: L R
Частота : 48,0 КГц
Частота кадров : 46,875 кадров/сек (1024 SPF)
Метод сжатия : С потерями
Размер потока : 139 Мбайт (27%)
Язык : English
Дата кодирования : UTC 2018-03-15 10:47:54
Дата пометки : UTC 2018-03-15 10:47:54
Общее
Полное имя : .\03 Шаблонизация и организация кода\03 Шаблонизация и организация кода.mp4
Формат : MPEG-4
Профиль формата : Base Media
Идентификатор кодека : isom (mp41)
Размер файла : 501 Мбайт
Продолжительность : 1 ч. 39 м.
Режим общего битрейта : Переменный
Общий поток : 707 Кбит/сек
Дата кодирования : UTC 2018-02-10 11:22:14
Дата пометки : UTC 2018-02-10 11:22:14
Программа кодирования : BandiMp4Muxer 1.0
Видео
Идентификатор : 1
Формат : AVC
Формат/Информация : Advanced Video Codec
Профиль формата : Main@L3.2
Настройки формата : CABAC / 1 Ref Frames
Параметр CABAC формата : Да
Параметр RefFrames формата : 1 кадр
Идентификатор кодека : avc1
Идентификатор кодека/Информация : Advanced Video Coding
Продолжительность : 1 ч. 39 м.
Битрейт : 504 Кбит/сек
Ширина : 1432 пикселя
Высота : 828 пикселей
Соотношение сторон : 1,729
Режим частоты кадров : Переменный
Частота кадров : 30,000 кадров/сек
Минимальная частота кадров : 14,993 кадров/сек
Максимальная частота кадров : 30,030 кадров/сек
Цветовое пространство : YUV
Субдискретизация насыщенности : 4:2:0
Битовая глубина : 8 бит
Тип развёртки : Прогрессивная
Бит/(Пиксели*Кадры) : 0.014
Размер потока : 358 Мбайт (71%)
Язык : English
Дата кодирования : UTC 2018-02-10 11:22:14
Дата пометки : UTC 2018-02-10 11:22:14
Аудио
Идентификатор : 2
Формат : AAC
Формат/Информация : Advanced Audio Codec
Профиль формата : LC
Идентификатор кодека : mp4a-40-2
Продолжительность : 1 ч. 39 м.
Duration_LastFrame : -21 мс.
Вид битрейта : Переменный
Битрейт : 192 Кбит/сек
Максимальный битрейт : 286 Кбит/сек
Каналы : 2 канала
Расположение каналов : Front: L R
Частота : 48,0 КГц
Частота кадров : 46,875 кадров/сек (1024 SPF)
Метод сжатия : С потерями
Размер потока : 138 Мбайт (27%)
Язык : English
Дата кодирования : UTC 2018-02-10 11:22:14
Дата пометки : UTC 2018-02-10 11:22:14
Общее
Полное имя : .\02 Стандартные API\02 Стандартные API.mp4
Формат : MPEG-4
Профиль формата : Base Media
Идентификатор кодека : isom (mp41)
Размер файла : 530 Мбайт
Продолжительность : 1 ч. 53 м.
Режим общего битрейта : Переменный
Общий поток : 655 Кбит/сек
Дата кодирования : UTC 2018-02-03 09:27:28
Дата пометки : UTC 2018-02-03 09:27:28
Программа кодирования : BandiMp4Muxer 1.0
Видео
Идентификатор : 1
Формат : AVC
Формат/Информация : Advanced Video Codec
Профиль формата : Main@L4
Настройки формата : CABAC / 1 Ref Frames
Параметр CABAC формата : Да
Параметр RefFrames формата : 1 кадр
Идентификатор кодека : avc1
Идентификатор кодека/Информация : Advanced Video Coding
Продолжительность : 1 ч. 53 м.
Битрейт : 456 Кбит/сек
Ширина : 1440 пикселей
Высота : 900 пикселей
Соотношение сторон : 16:10
Режим частоты кадров : Переменный
Частота кадров : 30,000 кадров/сек
Минимальная частота кадров : 14,993 кадров/сек
Максимальная частота кадров : 30,030 кадров/сек
Цветовое пространство : YUV
Субдискретизация насыщенности : 4:2:0
Битовая глубина : 8 бит
Тип развёртки : Прогрессивная
Бит/(Пиксели*Кадры) : 0.012
Размер потока : 369 Мбайт (70%)
Язык : English
Дата кодирования : UTC 2018-02-03 09:27:28
Дата пометки : UTC 2018-02-03 09:27:28
Аудио
Идентификатор : 2
Формат : AAC
Формат/Информация : Advanced Audio Codec
Профиль формата : LC
Идентификатор кодека : mp4a-40-2
Продолжительность : 1 ч. 53 м.
Duration_LastFrame : -21 мс.
Вид битрейта : Переменный
Битрейт : 192 Кбит/сек
Максимальный битрейт : 286 Кбит/сек
Каналы : 2 канала
Расположение каналов : Front: L R
Частота : 48,0 КГц
Частота кадров : 46,875 кадров/сек (1024 SPF)
Метод сжатия : С потерями
Размер потока : 155 Мбайт (29%)
Язык : English
Дата кодирования : UTC 2018-02-03 09:27:28
Дата пометки : UTC 2018-02-03 09:27:28

Программа курса

Раздел 1: Знакомство
– Знакомство с интенсивом
– Учебный и личные проекты
– Что такое PHP
– Как установить и настроить PHP-окружение
– Основы синтаксиса языка
– Описание рабочего процесса
Раздел 2: Массивы и функции
– Что такое массивы
– Практика работы с массивами
– Циклы
– Обход массивов
– Стандартная библиотека PHP
– Пишем свои функции
– Отладка кода
– PhpStorm - среда разработки для PHP
Раздел 3: Шаблонизация и организация кода
– Как работать с датой и временем
– Подключение файлов в PHP-сценариях
– Как организовывать код в проекте
–Шаблонизация: отделение логики от интерфейса
– Буферизация вывода
– Боремся с XSS-атаками (межсайтовый скриптинг)
Раздел 4: Формы и протокол HTTP
– Протокол HTTP
– Работа с заголовками из PHP
– Параметры запроса
– Методы GET и POST
– Формы: отправка данных на сервер
– Отправка файлов
– Валидация форм
Раздел 5: Хранение состояния и аутентификация
– Проблема хранения состояния в вебе
– Cookies (куки)
– Сессии
– Что такое аутентификация
– Правильное хранение паролей
– Организуем вход на сайт
Раздел 6: Базы данных. Теория
– что такое База Данных (БД)
– как БД хранят информацию
– понятие реляционных БД
– анализ и проектирование БД
– язык запросов SQL
– MySQL: установка и запуск
– как строить запросы: основные операции
– живая демонстрация
Раздел 7: MySQL и PHP
– поддержка MySQL в PHP
– подключение к БД из PHP-сценария
– выполнение SQL-запросов
– получение результата запроса из MySQL
– обработка ошибок
– безопасность при выполнении запросов
– подготовленные выражения
– интерактивные демонстрации
Раздел 8: Дополнительная практика MySQL
– полнотекстовый поиск
– пагинация результатов
– транзакции
– кэширование данных
– функции даты/времени в MySQL
Раздел 9: Чужой код
– что такое объект
– демонстрация работы с объектами
– что такое библиотека
– пакетный менеджер Composer
– обзор популярных библиотек
– демонстрация работы с Composer
– документирование кода
Раздел 10: Финал
– статистика интенсива
– организационная информация
– что изучать дальше?
– разбор нерассмотренных тем
– как искать работу и составить резюме

Дополнительная информация:

В раздаче имеются архивы! В них содержится код из репозитория курса.
Скриншоты:
Скачать .torrent

Для того, чтобы скачать торрент-файл

HTML Academy - Интенсивный онлайн‑курс Профессиональный PHP, уровень 1 (2018)

с нашего сайта, Вам необходимо Войти на сайт под своим логином! Если у Вас ещё нет логина, тогда Вам нужно сначала Зарегистрироваться!

Как скачивать? · Что такое торрент? · Рейтинг и ограничения

Показать сообщения:    
Ответить на тему

HTML Academy - Интенсивный онлайн‑курс Профессиональный PHP, уровень 1 (2018) скачать торрент (torrent), видеоуроки, тренинги, обучающее видео и видеокурсы

Текущее время: Сегодня 16:20

Часовой пояс: GMT + 4



Вы не можете начинать темы
Вы не можете отвечать на сообщения
Вы не можете редактировать свои сообщения
Вы не можете удалять свои сообщения
Вы не можете голосовать в опросах
Вы не можете прикреплять файлы к сообщениям
Вы не можете скачивать файлы