Специалист - Настройка ПК с Windows 10/8. Уровни 1 и 2 (2017)

Ответить на тему
 
Автор Сообщение

Yulya ®

Специалист | Настройка ПК с Windows 10/8. Уровни 1 и 2 (2017) PCRec [H.264] - Автор (режиссер): Специалист
Жанр: Видеокурс
Описание:
Вы счастливый обладатель компьютера или ноутбука с операционной системой Windows 10 или Windows 8. Вы используете его для решения различных задач на работе и дома. Но вдруг Вы стали замечать, что компьютер работает медленнее, чем раньше, а иногда и просто зависает. Еще немного, и система не запустится вообще. В чем проблема, и как со всем этим справиться?
Вас волнует сбор данных о пользователе в Windows 10? Мы научим Вас отключить эти функции ОС.
Курс предоставляет знания и навыки, необходимые для поддержки работоспособности и устранения неполадок компьютеров, работающих под управлением Windows.
Курс пригодится пользователям с различным уровнем подготовки. Для освоения курса достаточно иметь минимальные навыки по работе с компьютером.
Продолжительность: 21:30:14
Качество видео: PCRec
Видео: AVC/H.264, 1152x864, ~100 Kbps
Аудио: AAC, 2 ch, 56 Kbps

Mediainfo:

General
Complete name : D:\Торренты\Специалист по настройке ПК с Windows 10 (2017)\Настройка ПК с Windows 10. Уровень 1\1_1.mp4
Format : MPEG-4
Format profile : Base Media
Codec ID : isom (isom/avc1)
File size : 106 MiB
Duration : 1 h 33 min
Overall bit rate mode : Variable
Overall bit rate : 159 kb/s
Encoded date : UTC 2017-08-01 11:41:40
Tagged date : UTC 2017-08-01 11:41:40
Video
ID : 1
Format : AVC
Format/Info : Advanced Video Codec
Format profile : High@L3.1
Format settings : CABAC / 8 Ref Frames
Format settings, CABAC : Yes
Format settings, ReFrames : 8 frames
Codec ID : avc1
Codec ID/Info : Advanced Video Coding
Duration : 1 h 33 min
Bit rate : 100.0 kb/s
Maximum bit rate : 2 794 kb/s
Width : 1 152 pixels
Height : 864 pixels
Display aspect ratio : 4:3
Frame rate mode : Constant
Frame rate : 10.000 FPS
Color space : YUV
Chroma subsampling : 4:2:0
Bit depth : 8 bits
Scan type : Progressive
Bits/(Pixel*Frame) : 0.010
Stream size : 67.3 MiB (63%)
Title : 264@GPAC0.5.2-DEV-rev248-g39d5978-master
Writing library : x264 core 146 r2538 121396c
Encoding settings : cabac=1 / ref=8 / deblock=1:-1:-1 / analyse=0x3:0x113 / me=umh / subme=7 / psy=1 / psy_rd=1.00:0.20 / mixed_ref=1 / me_range=16 / chroma_me=1 / trellis=2 / 8x8dct=1 / cqm=0 / deadzone=21,11 / fast_pskip=0 / chroma_qp_offset=-3 / threads=6 / lookahead_threads=1 / sliced_threads=0 / nr=0 / decimate=0 / interlaced=0 / bluray_compat=0 / constrained_intra=0 / bframes=3 / b_pyramid=2 / b_adapt=2 / b_bias=0 / direct=3 / weightb=1 / open_gop=0 / weightp=2 / keyint=250 / keyint_min=10 / scenecut=40 / intra_refresh=0 / rc_lookahead=50 / rc=2pass / mbtree=1 / bitrate=100 / ratetol=1.0 / qcomp=0.60 / qpmin=0 / qpmax=69 / qpstep=4 / cplxblur=20.0 / qblur=0.5 / vbv_maxrate=14000 / vbv_bufsize=14000 / nal_hrd=none / filler=0 / ip_ratio=1.40 / aq=1:1.00
Encoded date : UTC 2017-08-01 11:41:40
Tagged date : UTC 2017-08-01 11:41:43
Audio
ID : 2
Format : AAC
Format/Info : Advanced Audio Codec
Format profile : LC
Codec ID : mp4a-40-2
Duration : 1 h 33 min
Bit rate mode : Variable
Bit rate : 56.0 kb/s
Maximum bit rate : 60.5 kb/s
Channel(s) : 2 channels
Channel positions : Front: L R
Sampling rate : 44.1 kHz
Frame rate : 43.066 FPS (1024 SPF)
Compression mode : Lossy
Stream size : 37.4 MiB (35%)
Encoded date : UTC 2017-08-01 11:12:03
Tagged date : UTC 2017-08-01 11:41:43

Дополнительная информация:

В комплексную программу подготовки входят курсы:
«Настройка ПК с Windows 10. Уровень 1. Базовые возможности»
Основные сведения о ПК. Управление стартом системы
Установка операционных систем Windows 10 и Windows 8 на стационарные и компьютеры и ноутбуки
Настройка системы
Установка и настройка устройств компьютера
Установка и удаление прикладных программ
Подключение компьютера к локальной сети. Интеграция с Internet
Профилактика, оптимизация и обслуживание системы
«Настройка ПК с Windows 10. Уровень 2. Расширенные возможности»
Восстановление повреждённой операционной системы на стационарных компьютерах и ноутбуках
Резервный образ системы
Средство «Защита системы»
Возврат компьютера в исходное состояние
Устранение неполадок старта Windows
Особенность установки Windows на нетбук. Создание загрузочного флэш-накопителя USB
Отключение средств сбора информации о пользователе в Windows 10
Использование различных вариантов загрузки Windows. Безопасный режим
Скриншоты:

Дополнительные скриншоты:

Скачать .torrent

Для того, чтобы скачать торрент-файл

Специалист - Настройка ПК с Windows 10/8. Уровни 1 и 2 (2017)

с нашего сайта, Вам необходимо Войти на сайт под своим логином! Если у Вас ещё нет логина, тогда Вам нужно сначала Зарегистрироваться!

Как скачивать? · Что такое торрент? · Рейтинг и ограничения

Показать сообщения:    
Ответить на тему

Специалист - Настройка ПК с Windows 10/8. Уровни 1 и 2 (2017) скачать торрент (torrent), видеоуроки, тренинги, обучающее видео и видеокурсы

Текущее время: Сегодня 07:13

Часовой пояс: GMT + 4



Вы не можете начинать темы
Вы не можете отвечать на сообщения
Вы не можете редактировать свои сообщения
Вы не можете удалять свои сообщения
Вы не можете голосовать в опросах
Вы не можете прикреплять файлы к сообщениям
Вы не можете скачивать файлы