FXPHD.com - Introduction to After Effects Scripting (2010)

Ответить на тему
 
Автор Сообщение

Yulya ®

FXPHD.com | Introduction to After Effects Scripting (2010) PCRec [H.264/720p-LQ] [RU/EN] - Автор (режиссер): Lloyd Alvarez
Производство: FXPHD.com
Жанр: Работа с видео, программирование
Описание:
Введение в скриптинг в After Effects
Этот учебный курс подготовлен Ллойдом Альваресом и является введением в основы написания скриптов в программе Adobe After Effects, начиная с версии CS3 и выше.
Скрипты (или сценарии) предназначены для автоматизации рутинных задач, которые могут быть выполнены вручную, но требуют на это много времени и сил. Поэтому для прохождения курса очень рекомендуется иметь хороший опыт работы в программе + базовые навыки JavaScript (это рассматривается в первых уроках).
Необходимое программное обеспечение: After Effects, ExtendScript Toolkit
Продолжительность: 07:47:24
Качество видео: PCRec
Перевод: Дублированный, MelodyWi
Язык озвучки: Русский, Английский
Видео: AVC/H.264, 1152x720, ~133-302 Kbps
Аудио 1: MP3, 2 ch, 128 Kbps - Русский, дублированный (MelodyWi)
Аудио 2: AAC, 1 ch, 64 Kbps - Английский, оригинал

Mediainfo:

General
Complete name : AFX 210 - class 08.mp4
Format : MPEG-4
Format profile : Base Media
Codec ID : isom
File size : 111 MiB
Duration : 34mn 7s
Overall bit rate : 457 Kbps
Video
ID : 1
Format : AVC
Format/Info : Advanced Video Codec
Format profile : Main@L3.1
Format settings, CABAC : No
Format settings, ReFrames : 2 frames
Codec ID : avc1
Codec ID/Info : Advanced Video Coding
Duration : 34mn 7s
Bit rate : 258 Kbps
Width : 1 152 pixels
Height : 720 pixels
Display aspect ratio : 16:10
Frame rate mode : Constant
Frame rate : 20.000 fps
Color space : YUV
Chroma subsampling : 4:2:0
Bit depth : 8 bits
Scan type : Progressive
Bits/(Pixel*Frame) : 0.016
Stream size : 62.9 MiB (56%)
Color primaries : BT.709
Transfer characteristics : BT.709
Matrix coefficients : BT.709
Language : English
Audio #1
ID : 2
Format : MPEG Audio
Format version : Version 1
Format profile : Layer 3
Mode : Joint stereo
Codec ID : 6B
Duration : 34mn 7s
Bit rate mode : Constant
Bit rate : 128 Kbps
Channel(s) : 2 channels
Sampling rate : 48.0 KHz
Compression mode : Lossy
Stream size : 31.2 MiB (28%)
Language : Russian
Audio #2
ID : 3
Format : AAC
Format/Info : Advanced Audio Codec
Format profile : LC
Codec ID : 40
Duration : 34mn 7s
Bit rate mode : Constant
Bit rate : 64.0 Kbps
Channel(s) : 2 channels
Channel(s)_Original : 1 channel
Channel positions : Front: C
Sampling rate : 44.1 KHz
Compression mode : Lossy
Stream size : 15.6 MiB (14%)
Language : English

Продолжение описания:

Скрипты для After Effects можно писать как на ExtendScript (расширение JavaScript для работы на компьютерах под Windows и под Mac), так и на AppleScript (для пользователей Mac-машин), и на Visual Basic, доступном под Windows. В этом курсе мы будем работать только с ExtendScript, так как он является кросс-платформенным и имеет более обширную ресурсную базу. Ей он обязан JavaScript, на основе которого был разработан.
Изучение программирования порой бывает очень скучным, поэтому на этом курсе мы будем заниматься в основном практикой, а не теорией. Рассмотрим основы программирования и написания скриптов, затем применим их для создания нескольких реальных сценариев.
Автор курса, Ллойд Альварес, проживает в Нью-Йорке и является высоко востребованным многопрофильным фрилансером, в списке профессий которого числятся режиссура, дизайн, композитинг и анимация. Сначала Ллойд Альварес изучал скрипты в After Effects для решения технологических проблем по своим фриланс-проектам, на скоро начал делиться ими с другими. Первым его скриптом был "BG Renderer Script", ставший очень популярным. С тех пор он выпустил ещё несколько более популярных скриптов и сейчас является куратором на сайте Aescripts.com, где собраны лучшие скрипты для After Effects от лучших программистов со всего мира.
На сайте FXPHD.com большинство вводных курсов имеют уровень для начинающих. Но так как для успешного прохождения этого курса требуется знания основ After Effects, было решено определить его на средний уровень.

Содержание:

Урок 01.
Краткий рассказ о том, что представляет собой процесс создания скриптов, а также о чем пойдёт речь на курсе. Мы начнём писать первый скрипт и на его примере рассмотрим основы разработки скриптов, о которых будем говорить на первых трёх занятиях. Познакомимся с моделью DOM для After Effects и переменными. Сделаем обзор возможностей After Effect для написания скриптов и как их использовать на практике. И в конце узнаем о том, как скрипты устанавливать и запускать.
Урок 02.
Введение в ExtendScript Toolkit — полнофункциональный отладчик сценариев JavaScript, который поставляется с After Effects. В этом приложении мы будем создавать все скрипты на этом курсе. Мы познакомимся с переменными, операторами, массивами и основными элементами управления пользовательским интерфейсом.
Урок 03.
Введение в условные операторы, циклы и функции.
Урок 04.
Пишем первый скрипт: скрипт для создания автономного DSLR-клипа. Рассматриваемые темы: основы проверки ошибок, зацикливание проекта и создание композиций на основе видео-файлов. А также — добавление текстового слоя в композицию при помощи выражений, добавление композиции в очередь на рендеринг и настройка параметров конечного файла.
Урок 05.
Пишем первый скрипт: продолжение.
Урок 06.
Пишем второй скрипт: скрипт для создания промо-версий. Рассматриваемые темы: импорт данных из текстового файла, зацикливание композиций, замена свойств текстового слоя, добавление в очередь на рендеринг и основы регулярных выражений.
Урок 07.
Пишем второй скрипт: продолжение. Рассматриваемые темы: создание и использование пользовательских объектов.
Урок 08.
Пишем третий скрипт: скрипт для поиска и создания слоёв. Рассматриваемые темы: создание пользовательского интерфейса ScriptUI, поиск слоёв в проекте, работа со свойствами слоя.
Урок 09.
Пишем третий скрипт: продолжение.
Урок 10.
Пишем третий скрипт: окончание.

Дополнительная информация:

Файлы упражнений прилагаются к курсу.
Дополнительная информация на офсайте.
Как выбрать звуковую дорожку по умолчанию (ссылка).
Скриншоты:

Дополнительные скриншоты:

Скачать .torrent

Для того, чтобы скачать торрент-файл

FXPHD.com - Introduction to After Effects Scripting (2010)

с нашего сайта, Вам необходимо Войти на сайт под своим логином! Если у Вас ещё нет логина, тогда Вам нужно сначала Зарегистрироваться!

Как скачивать? · Что такое торрент? · Рейтинг и ограничения

Показать сообщения:    
Ответить на тему

FXPHD.com - Introduction to After Effects Scripting (2010) скачать торрент (torrent), видеоуроки, тренинги, обучающее видео и видеокурсы

Текущее время: Сегодня 05:34

Часовой пояс: GMT + 4



Вы не можете начинать темы
Вы не можете отвечать на сообщения
Вы не можете редактировать свои сообщения
Вы не можете удалять свои сообщения
Вы не можете голосовать в опросах
Вы не можете прикреплять файлы к сообщениям
Вы не можете скачивать файлы