Анна Криволапова - Adobe Illustrator. Курс новичка-иллюстратора (2017) [H.264/720]

Ответить на тему
 
Автор Сообщение

Yulya ®

Анна Криволапова | Adobe Illustrator. Курс новичка-иллюстратора (2017) PCRec [H.264/720] - Автор (режиссер): Анна Криволапова
Производство: NetGon
Жанр: Видеокурс, Графика, 2D,
Сайт производителя: netgon.ru
Описание:
Курс для начинающих и желающих изучить векторный редактор Adobe Illustrator максимально быстро и эффективно.
Продолжительность: 05:11:48
Качество видео: PCRec
Видео: AVC/H.264, 1278x720, ~497 kbps
Аудио: AAC, 2 ch, 192 kbps

Mediainfo:

General
Complete name : D:\torrent\novichek.illustrator\Урок 2 - Основные инструменты Illustrator . Часть 5.mp4
Format : MPEG-4
Format profile : Base Media / Version 2
Codec ID : mp42 (isom/mp42)
File size : 79.7 MiB
Duration : 16 min 5 s
Overall bit rate mode : Variable
Overall bit rate : 692 kb/s
Encoded date : UTC 2017-04-23 18:54:31
Tagged date : UTC 2017-04-23 18:54:31
gsst : 0
gstd : 965950
Video
ID : 1
Format : AVC
Format/Info : Advanced Video Codec
Format profile : High@L3.1
Format settings, CABAC : Yes
Format settings, ReFrames : 1 frame
Format settings, GOP : M=1, N=60
Codec ID : avc1
Codec ID/Info : Advanced Video Coding
Duration : 16 min 5 s
Bit rate : 498 kb/s
Maximum bit rate : 3 616 kb/s
Width : 1 278 pixels
Height : 720 pixels
Display aspect ratio : 16:9
Frame rate mode : Constant
Frame rate : 25.000 FPS
Color space : YUV
Chroma subsampling : 4:2:0
Bit depth : 8 bits
Scan type : Progressive
Bits/(Pixel*Frame) : 0.022
Stream size : 57.3 MiB (72%)
Tagged date : UTC 2017-04-23 18:54:36
Audio
ID : 2
Format : AAC
Format/Info : Advanced Audio Codec
Format profile : LC
Codec ID : 40
Duration : 16 min 5 s
Bit rate mode : Variable
Bit rate : 192 kb/s
Maximum bit rate : 203 kb/s
Channel(s) : 2 channels
Channel positions : Front: L R
Sampling rate : 44.1 kHz
Frame rate : 43.066 FPS (1024 spf)
Compression mode : Lossy
Stream size : 22.1 MiB (28%)
Title : IsoMedia File Produced by Google, 5-11-2011
Language : English
Encoded date : UTC 2017-04-23 18:54:34
Tagged date : UTC 2017-04-23 18:54:36

Содержание Курса:

1. Введение в Illustrator (2 части). Начало работы. Установка и запуск векторного редактора, разбор основных панелей программы.
2. Основные инструменты Illustrator (6 частей). Обзор основных инструментов.
3. Цветовые палитры (2 части). Работа с формами и цветом. К концу урока научитесь создавать простые иконки с контурами. В вашем портфолио + 1 иллюстрация.
4. Работа с эскизами в Illustrator (2 части). Трассировка и работа с кистями. В итоге научитесь создавать украшательный элемент, абстрактный фон из узора и бесшовный паттерн. В вашем портфолио + 4 иллюстрации.
5. Оптимизация работы в Illustrator (2 части). Организация артбордов, горячие клавиши, слои и работа с символами. В ходе урока создадите иллюстрацию с применением символов. В вашем портфолио + 5 иллюстраций.
6. Скрипты и экшены в Illustrator. В уроке рисуете иллюстрацию с использованием скриптов. В вашем портфолио + 6 иллюстраций.
7. Типографика в Illustrator. Работа со шрифтами и текстом. В вашем портфолио + 7 иллюстраций.
8. Работа с мешами в Illustrator. Рисовние реалистичной иллюстрации с применением мешей. В вашем портфолио + 8 иллюстраций.
9. Полигоны в Illustrator (2 части). Разбор полигональных сеток. Создание иллюстрации в стиле полигонов. В вашем портфолио + 9 иллюстраций.
10. Иллюстрация в стиле флэт в Illustrator (3 части). Заключительный урок. Иллюстрация по эскизу с текстом в стиле флэт с большим количеством деталей. В вашем портфолио + 10 иллюстраций.
Скриншоты:
Скачать .torrent

Для того, чтобы скачать торрент-файл

Анна Криволапова - Adobe Illustrator. Курс новичка-иллюстратора (2017) [H.264/720]

с нашего сайта, Вам необходимо Войти на сайт под своим логином! Если у Вас ещё нет логина, тогда Вам нужно сначала Зарегистрироваться!

Как скачивать? · Что такое торрент? · Рейтинг и ограничения

Показать сообщения:    
Ответить на тему

Анна Криволапова - Adobe Illustrator. Курс новичка-иллюстратора (2017) [H.264/720] скачать торрент (torrent), видеоуроки, тренинги, обучающее видео и видеокурсы

Текущее время: Сегодня 00:02

Часовой пояс: GMT + 4



Вы не можете начинать темы
Вы не можете отвечать на сообщения
Вы не можете редактировать свои сообщения
Вы не можете удалять свои сообщения
Вы не можете голосовать в опросах
Вы не можете прикреплять файлы к сообщениям
Вы не можете скачивать файлы