Мефодий Келевра - Сетевой стек P/IP (2018)

Ответить на тему
 
Автор Сообщение

Yulya ®

Мефодий Келевра | Сетевой стек TCP/IP (2018) PCRec - Автор (режиссер): Мефодий Келевра
Производство: GeekBrains
Жанр: IT
Описание:
Семейство протоколов TCP/IP широко применяется во всем мире для объединения компьютеров в сеть Internet. Единая сеть Internet состоит из множества сетей различной физической природы, от локальных сетей типа Ethernet и Token Ring, до глобальных сетей типа NSFNET. Широко используемая ныне версия 4 протоколов TCP/IP была стандартизирована в 1981 г. в виде документов, называемых RFC (Request For Comment). Полный переход сети ARPANET на новые протоколы был завершен в 1982 г. Эта сеть сыграла роль "зародыша" всемирной сети Интернет, построенной на базе протоколов TCP/IP. Реализация протоколов TCP/IP оказалась наиболее удачной в версиях BSD4.2 и BSD4.3 операционной системы UNIX. Эта реализация является эталоном (станартом "de facto") для всех последующих.
Для изучения курса не требуется специальных знаний. Курс будет интересен программистам, желающим расширить кругозор.
Чему Вы научитесь:
  • Начинающие сисадмины смогут работать эффективнее;
  • Желающие стать сисадминами получат первоначальные знания и умения;
  • Программисты смогут разрабатывать программы с учётом среды выполнения;
  • Все слушатели изучат стек TCP/IP от коннектора до веб-сервера.
Продолжительность: 21:53:37
Качество видео: PCRec
Видео: AVC/H.264, 1280 x 720, ~409 kb/s
Аудио: AAC, 2 ch, 64.0 kb/s

Mediainfo:

General
Complete name : D:\Раздачи\Компьютерные сети\Урок 8\8.mp4
Format : MPEG-4
Format profile : Base Media
Codec ID : isom (isom/iso2/avc1/mp41)
File size : 498 MiB
Duration : 2 h 25 min
Overall bit rate : 480 kb/s
Writing application : Lavf54.29.104
Video
ID : 1
Format : AVC
Format/Info : Advanced Video Codec
Format profile : High@L3.1
Format settings : CABAC / 4 Ref Frames
Format settings, CABAC : Yes
Format settings, RefFrames : 4 frames
Codec ID : avc1
Codec ID/Info : Advanced Video Coding
Duration : 2 h 25 min
Bit rate : 409 kb/s
Nominal bit rate : 640 kb/s
Width : 1 280 pixels
Height : 720 pixels
Display aspect ratio : 16:9
Frame rate mode : Constant
Frame rate : 20.000 FPS
Color space : YUV
Chroma subsampling : 4:2:0
Bit depth : 8 bits
Scan type : Progressive
Bits/(Pixel*Frame) : 0.022
Stream size : 424 MiB (85%)
Writing library : x264 core 132
Encoding settings : cabac=1 / ref=1 / deblock=1:0:0 / analyse=0x3:0x113 / me=hex / subme=2 / psy=1 / psy_rd=1.00:0.00 / mixed_ref=0 / me_range=16 / chroma_me=1 / trellis=0 / 8x8dct=1 / cqm=0 / deadzone=21,11 / fast_pskip=1 / chroma_qp_offset=0 / threads=4 / lookahead_threads=1 / sliced_threads=0 / nr=0 / decimate=1 / interlaced=0 / bluray_compat=0 / constrained_intra=0 / bframes=3 / b_pyramid=2 / b_adapt=1 / b_bias=0 / direct=1 / weightb=1 / open_gop=0 / weightp=1 / keyint=80 / keyint_min=8 / scenecut=40 / intra_refresh=0 / rc_lookahead=10 / rc=cbr / mbtree=1 / bitrate=640 / ratetol=1.0 / qcomp=0.60 / qpmin=0 / qpmax=69 / qpstep=4 / vbv_maxrate=640 / vbv_bufsize=512 / nal_hrd=none / ip_ratio=1.40 / aq=1:1.00
Audio
ID : 2
Format : AAC
Format/Info : Advanced Audio Codec
Format profile : LC
Codec ID : mp4a-40-2
Duration : 2 h 25 min
Bit rate mode : Constant
Bit rate : 64.0 kb/s
Channel(s) : 2 channels
Channel positions : Front: L R
Sampling rate : 44.1 kHz
Frame rate : 43.066 FPS (1024 SPF)
Compression mode : Lossy
Stream size : 66.4 MiB (13%)
Default : Yes
Alternate group : 1

Дополнительная информация:

Программа курса:
Урок 1. Основы компьютерных сетей. Технология Ethernet. Часть 1
Основные концепции компьютерных сетей; Эталонная модель OSI/ISO и стек протоколов TCP/IP; Введение в технологию Ethernet; Диагностика физического уровня.
Урок 2. Физический и канальный уровень. Технология Ethernet. Часть 2
Основные концепции технологии Ethernet; CSMA/CD. MAC-адресация; формат Ethernet-фрейма; коммутация; микросегментация; диагностика канального уровня.
Урок 3. Сетевой уровень. Часть 1
Классовая IPv4 - адресация; протокол ARP: связь IP-адреса и MAC-адреса; формат IPv4-пакета; статическая маршрутизация; диагностика сетевого уровня.
Урок 4. Сетевой уровень. Часть 2
Бесклассовая маршрутизация, маски подсетей переменной длины (CIDR/VLSM); динамическая маршрутизация; протокол DHCP.
Урок 5. Транспортный уровень
Протоколы с гарантированной и негарантированной доставкой данных: TCP и UDP; форматы TCP-сегмента и UDP-дейтаграммы; сокеты; технология перегруженного NAT(PAT); диагностика транспортного уровня.
Урок 6. Углубленное изучение сетевых технологий. Часть 1
Система DNS; сетевая безопасность; шифрование с симметричным и асимметричным ключом; технологии VPN.
Урок 7. Углубленное изучение сетевых технологий. Часть 2
Семейство технологий Wi-Fi; технологии VLAN (802.1Q); введение в IPv6.
Урок 8. Прикладной уровень
Прикладной уровень; SMTP, HTTP; перспективные прикладные протоколы.
Скриншоты:
Скачать .torrent

Для того, чтобы скачать торрент-файл

Мефодий Келевра - Сетевой стек P/IP (2018)

с нашего сайта, Вам необходимо Войти на сайт под своим логином! Если у Вас ещё нет логина, тогда Вам нужно сначала Зарегистрироваться!

Как скачивать? · Что такое торрент? · Рейтинг и ограничения

Показать сообщения:    
Ответить на тему

Мефодий Келевра - Сетевой стек P/IP (2018) скачать торрент (torrent), видеоуроки, тренинги, обучающее видео и видеокурсы

Текущее время: Сегодня 01:19

Часовой пояс: GMT + 4



Вы не можете начинать темы
Вы не можете отвечать на сообщения
Вы не можете редактировать свои сообщения
Вы не можете удалять свои сообщения
Вы не можете голосовать в опросах
Вы не можете прикреплять файлы к сообщениям
Вы не можете скачивать файлы