Специалист - Web - мастеринг. Настройка web - серверов (2018)

Ответить на тему
 
Автор Сообщение

Yulya ®

Специалист | Web - мастеринг. Настройка web - серверов (2018) PCRec - Автор (режиссер): Игорь Олегович Борисов
Жанр: Вэб-программирование
Доп. материалы: Есть
Описание:
В рейтинге самых привлекательных и востребованных профессий в ИТ на первое место можно с уверенностью поставить веб-мастера – под этим словом в широком смысле понимают специалистов, которые занимаются разработкой и поддержкой сайтов. Сегодня любая серьезная компания стремится обзавестись собственным сайтом или веб-страницей, а значит, ей нужны квалифицированные специалисты.
Разработчики, программисты, верстальщики, оптимизаторы – ценные сотрудники в российских и международных компаниях. Им предлагают достойный оклад и заманчивые условия труда: корпоративные «плюшки», интересные проекты, карьерный рост, гибкий график. Благодаря стабильному спросу на свои услуги веб-мастер может позволить себе работать на фрилансе: самому выбирать заказчиков, не отчитываясь перед «дядей», сидя в любимом кресле дома или в отеле на берегу моря.
Если вы решили заниматься разработкой сайтов, вам нужно четко представлять принципы работы веб-сервера. Именно знания протокола HTTP делают веб-мастера профессионалом своего дела и позволяют ему легко решать задачи построения сайтов. Пренебрегающий этим фактом специалист, сталкиваясь с задачей, пишет громоздкий программный код и даже не догадывается, что она решается одной-двумя строчками в конфигурации веб-сервера.

Продолжение описания:

Наш курс «Web-мастеринг. Настройка web-серверов» поможет изучить механизмы работы веб-сервера и получить практические навыки администрирования. Он будет полезен выпускникам курсов направлений PHP, Python, Ruby и др. и слушателям, которые только планируют это обучение. Курс может быть рекомендован выпускникам курсов по веб-направлению, если слушатели не проходили настоящий курс.
На занятиях вы рассмотрите свободный сервер Nginx, а также сервер Apache версий 2.2-2.4, часто применяемый на платформе Unix. Преподаватель уделит внимание важным темам, связанным с безопасностью: механизмы аутентификации, сценарии авторизации пользователей, настройка и использование SSL, работа с сертификатами SSL, использование модуля сервера Apache mod_rewrite.
Полученные знания вы отработаете на практике: 24-часовой курс включает 13 лабораторных работ. Пройдя курс, вы сможете самостоятельно администрировать серверы Nginx и Apache 2.2-2.4, управлять кэшированием контента, использовать SSL и работать со спецификациями RFC. Ваши умения и навыки подтвердят престижные документы центра: свидетельство или удостоверение о повышении квалификации.

По окончании курса Вы будете уметь:

- администрировать сервер Apache 2.4
- администрировать сервер Nginx
- управлять кэшированием контента
- использовать обработчики и модули сервера
- использовать SSL
- знать и понимать протокол HTTP/1.1
- понимать механизмы аутентификации пользователей
Специалисты, обладающие этими знаниями и навыками, в настоящее время крайне востребованы. Большинство выпускников наших курсов делают успешную карьеру и пользуются уважением работодателей.

Программа курса:

Модуль 1. Основы сетей
Сети TCP/IP
Модель OSI
Адресация в сетях
Маршрутизация
Порты
Разрешение имен
DNS
Использование полезных утилит
Модуль 2. Протокол HTTP
Терминология (RFC2616)
Методы запросов
Статус сервера
Заголовки запроса и ответа
Передача данных
Расширяемость протокола
Обзор существующих веб-серверов
Модуль 3. Веб-сервер Apache
Обзор и установка сервера Apache
Основные директивы настройки сервера Apache
Файлы конфигурации сервера
Виртуальные хосты
Виртуальные директории
Пользовательские сообщения об ошибках
Использование пользовательских заголовков ответа
Привязка расширений файлов к MIME-типам
Управление кэшированием
Привязка и использование серверных обработчиков
Аутентификация и авторизация пользователя
Защита HTTP-трафика с использованием SSL
Использование модуля mod_rewrite
Модуль 4. Веб-сервер Nginx
Установка сервера Nginx
Основные директивы настройки сервера Nginx
Конфигурирование сервера
Использование Nginx в качестве кэшируещего сервера
Использование Nginx в качестве балансировщика нагрузки
Продолжительность: 12:37:12
Качество видео: PCRec
Видео: AVC/H.264, 1360x768, ~100 Kbps
Аудио: AAC, 2 ch, 56 - 59 Kbps

Mediainfo:

Общее
Полное имя : C:\[Специалист] Web - мастеринг. Настройка web - серверов (2018)\1_1.mp4
Формат : MPEG-4
Профиль формата : Base Media
Идентификатор кодека : isom (isom/avc1/iso6)
Размер файла : 86,4 Мбайт
Продолжительность : 1 ч. 16 м.
Режим общего битрейта : Переменный
Общий поток : 158 Кбит/сек
Дата кодирования : UTC 2018-03-11 09:05:40
Дата пометки : UTC 2018-03-11 09:05:40
Видео
Идентификатор : 1
Формат : AVC
Формат/Информация : Advanced Video Codec
Профиль формата : High@L4.1
Настройки формата : CABAC / 11 Ref Frames
Параметр CABAC формата : Да
Параметр RefFrames формата : 11 кадров
Идентификатор кодека : avc1
Идентификатор кодека/Информация : Advanced Video Coding
Продолжительность : 1 ч. 16 м.
Битрейт : 100,0 Кбит/сек
Максимальный битрейт : 5533 Кбит/сек
Ширина : 1360 пикселей
Высота : 768 пикселей
Соотношение сторон : 16:9
Режим частоты кадров : Постоянный
Частота кадров : 10,000 кадров/сек
Цветовое пространство : YUV
Субдискретизация насыщенности : 4:2:0
Битовая глубина : 8 бит
Тип развёртки : Прогрессивная
Бит/(Пиксели*Кадры) : 0.010
Размер потока : 54,7 Мбайт (63%)
Заголовок : 264@GPAC0.5.2-DEV-rev248-g39d5978-master
Библиотека кодирования : x264 core 146 r2538 121396c
Настройки программы : cabac=1 / ref=11 / deblock=1:-1:-1 / analyse=0x3:0x113 / me=umh / subme=7 / psy=1 / psy_rd=1.00:0.20 / mixed_ref=1 / me_range=16 / chroma_me=1 / trellis=2 / 8x8dct=1 / cqm=0 / deadzone=21,11 / fast_pskip=0 / chroma_qp_offset=-3 / threads=6 / lookahead_threads=1 / sliced_threads=0 / nr=0 / decimate=0 / interlaced=0 / bluray_compat=0 / constrained_intra=0 / bframes=3 / b_pyramid=2 / b_adapt=2 / b_bias=0 / direct=3 / weightb=1 / open_gop=0 / weightp=2 / keyint=250 / keyint_min=10 / scenecut=40 / intra_refresh=0 / rc_lookahead=50 / rc=2pass / mbtree=1 / bitrate=100 / ratetol=1.0 / qcomp=0.60 / qpmin=0 / qpmax=69 / qpstep=4 / cplxblur=20.0 / qblur=0.5 / vbv_maxrate=14000 / vbv_bufsize=14000 / nal_hrd=none / filler=0 / ip_ratio=1.40 / aq=1:1.00
Дата кодирования : UTC 2018-03-11 09:05:40
Дата пометки : UTC 2018-03-11 09:05:46
Аудио
Идентификатор : 2
Формат : AAC
Формат/Информация : Advanced Audio Codec
Профиль формата : HE-AAC / LC
Настройки формата : Explicit
Идентификатор кодека : mp4a-40-2
Продолжительность : 1 ч. 16 м.
Вид битрейта : Переменный
Битрейт : 56,0 Кбит/сек
Максимальный битрейт : 59,8 Кбит/сек
Каналы : 2 канала
Расположение каналов : Front: L R
Частота : 44,1 КГц / 22,05 КГц
Частота кадров : 21,533 кадра/сек (1024 SPF)
Метод сжатия : С потерями
Размер потока : 30,6 Мбайт (35%)
Дата кодирования : UTC 2018-03-11 08:46:01
Дата пометки : UTC 2018-03-11 09:05:46
Скриншоты:
Скачать .torrent

Для того, чтобы скачать торрент-файл

Специалист - Web - мастеринг. Настройка web - серверов (2018)

с нашего сайта, Вам необходимо Войти на сайт под своим логином! Если у Вас ещё нет логина, тогда Вам нужно сначала Зарегистрироваться!

Как скачивать? · Что такое торрент? · Рейтинг и ограничения

Показать сообщения:    
Ответить на тему

Специалист - Web - мастеринг. Настройка web - серверов (2018) скачать торрент (torrent), видеоуроки, тренинги, обучающее видео и видеокурсы

Текущее время: Сегодня 01:28

Часовой пояс: GMT + 4



Вы не можете начинать темы
Вы не можете отвечать на сообщения
Вы не можете редактировать свои сообщения
Вы не можете удалять свои сообщения
Вы не можете голосовать в опросах
Вы не можете прикреплять файлы к сообщениям
Вы не можете скачивать файлы