Amlab.me - Свадебный университет (2017)

Ответить на тему
 
Автор Сообщение

Yulya ®

Amlab.me | Свадебный университет (2017) PCRec [H.264/1080p-LQ] - Автор (режиссер): Amlab.me
Жанр: Обработка и съемка фото
Описание:
Онлайн-университет свадебной фотографии
3 месяца.
Продолжительность: 75:32:48
Качество видео: PCRec
Количество видео файлов: 267 штук
Видео: AVC/H.264, 1920x1080, ~1 218 Kbps
Аудио: AAC, 2 ch, 245 Kbps

Знакомьтесь, ваши преподаватели:

Константин Еремеев, Алексей Гайдин, Константин Корешков, Алексей Малышев, Юлия Франтова.
Куча лекций, разбор серий студентов-фотографов, домашние задания и их разбор, диплом.
Вам точно нужен этот университет, если:
1. Вы не уверены в своих профессиональных навыках:
Не уверены, что всегда сможете снять хорошо,
Солнце быстрее вашей реакции,
Боитесь работать с искусственным светом,
У невесты снова поехал скинтон.
2. Сталкивались с проблемами позиционирования:
К вам приходят за невестой на ладошке,
Еще ни разу не снимали заграницей,
У вас есть батон, но нет изюма.
3. Вы зарабатываете недостаточно:
Цепляетесь за каждый заказ,
Низкий средний чек,
Клиенты не знают, что вы существуете.
4. Общение с клиентами не всегда проходит успешно:
Клиенты сами диктуют вам условия,
Вам попадаются жадные клиенты,
Испытываете трудности во время общения с парой.
5. Предыдущее обучение не дало ожидаемого эффекта:
Не хватает конструктивной критики и опытных советов,
Сходили на 5 МК, классно пообщались,
Не знаете где и как применить знания.

Mediainfo:

General
Complete name : E:\photo\Amlab.me - Свадебный университет (2017)\1. Лекция Амбалов. Современная свадебная фотография\Константин Еремеев - Современная свадебная фотография.mp4
Format : MPEG-4
Format profile : Base Media / Version 2
Codec ID : mp42 (mp42/isom)
File size : 1.17 GiB
Duration : 1 h 54 min
Overall bit rate mode : Variable
Overall bit rate : 1 467 kb/s
Encoded date : UTC 2016-06-16 15:22:31
Tagged date : UTC 2016-06-16 15:56:52
Video
ID : 1
Format : AVC
Format/Info : Advanced Video Codec
Format profile : Main@L5
Format settings, CABAC : Yes
Format settings, RefFrames : 5 frames
Codec ID : avc1
Codec ID/Info : Advanced Video Coding
Duration : 1 h 54 min
Bit rate : 1 218 kb/s
Width : 1 920 pixels
Height : 1 080 pixels
Display aspect ratio : 16:9
Frame rate mode : Constant
Frame rate : 30.000 FPS
Color space : YUV
Chroma subsampling : 4:2:0
Bit depth : 8 bits
Scan type : Progressive
Bits/(Pixel*Frame) : 0.020
Stream size : 996 MiB (83%)
Encoded date : UTC 2016-06-16 15:22:31
Tagged date : UTC 2016-06-16 15:56:51
Color primaries : BT.709
Transfer characteristics : BT.709
Matrix coefficients : BT.709
Audio
ID : 2
Format : AAC
Format/Info : Advanced Audio Codec
Format profile : LC
Codec ID : 40
Duration : 1 h 54 min
Bit rate mode : Variable
Bit rate : 245 kb/s
Maximum bit rate : 421 kb/s
Channel(s) : 2 channels
Channel positions : Front: L R
Sampling rate : 44.1 kHz
Frame rate : 43.066 FPS (1024 SPF)
Compression mode : Lossy
Stream size : 200 MiB (17%)
Encoded date : UTC 2016-06-16 15:22:31
Tagged date : UTC 2016-06-16 15:24:18
Скриншоты:
Скачать .torrent

Для того, чтобы скачать торрент-файл

Amlab.me - Свадебный университет (2017)

с нашего сайта, Вам необходимо Войти на сайт под своим логином! Если у Вас ещё нет логина, тогда Вам нужно сначала Зарегистрироваться!

Как скачивать? · Что такое торрент? · Рейтинг и ограничения

Показать сообщения:    
Ответить на тему

Amlab.me - Свадебный университет (2017) скачать торрент (torrent), видеоуроки, тренинги, обучающее видео и видеокурсы

Текущее время: Сегодня 20:28

Часовой пояс: GMT + 4



Вы не можете начинать темы
Вы не можете отвечать на сообщения
Вы не можете редактировать свои сообщения
Вы не можете удалять свои сообщения
Вы не можете голосовать в опросах
Вы не можете прикреплять файлы к сообщениям
Вы не можете скачивать файлы