Алина Гесс - Денег хватает всегда (2017)

Ответить на тему
 
Автор Сообщение

Yulya ®

Алина Гесс | Денег хватает всегда (2017) PCRec - Автор (режиссер): Алина Гесс
Оф. сайт: alina-guess.ru
Жанр: Эзотерика
Описание:
Тренинг «Денег хватает всегда» - это двухдневная работа с вашими мыслями и мышлением в целом!
Если вы давно мечтали повысить уровень жизни, избавиться от долгов и кредитов, привлечь любые богатства и превратить самые дерзкие мечты в реальность, то время пришло.
Вы увидите, насколько просто и естественно можно получать у Вселенной подарки и иметь комфортный доход для закрытия всех ваших потребностей.

По окончании курса Вы будете уметь:

Вы приобрете ключевой навык: навык притягивать деньги с помощью правильных мыслей и действий! К сожалению, в привычной жизни мы не привыкли держать под контролем наши мысли, которые в итоге и притягивают весь этот ворох проблем.
Кроме того, вы узнаете различные техники привлечения финансовой помощи, чтобы справиться даже с самой сложной ситуацией.

Программа тренинга:

Первый день:
• Открываем канал изобилия, учимся жить в достатке.
• Меняем блокировки и негативные установки на позитивные.
• Развиваем мышление богатого.
• Денежные Законы Вселенной, которые гарантированно выводят на новый финансовый уровень.
• Перекрываем каналы утечки денег.
• Как правильно работать с долгами и кредитами.
Второй день:
• Все техники для привлечения денег, в том числе для быстрого привлечения финансовой помощи.
• Техники на увеличения дохода.
• Правила формулировки денежных желаний.
• Как поставить цель и достичь ее.
• Как правильно выбрать кошелек.
Продолжительность: 07:36:13
Качество видео: PCRec
Видео: WMV3, 1280x720, 174 kbps
Аудио: WMA, 1 ch, 48 kbps

Mediainfo:

Код:
General
Complete name                            : C:\Алина-Гесс_Денег-хватает-всегда_2017\01-Денег хватает всегда (12.2017).wmv
Format                                   : Windows Media
File size                                : 366 MiB
Duration                                 : 3h 50mn
Overall bit rate mode                    : Variable
Overall bit rate                         : 222 Kbps
Maximum Overall bit rate                 : 813 Kbps
Encoded date                             : UTC 2018-04-05 20:25:23.437
Writing application                      :  6.0 Build 1259
BitRateFrom the writer                   : 216245
Audio samples                            : 188642
Video samples                            : 403076
recording time                           : Пт, 06 апр 2018 07:01:15 RTZ 2 (зима)
Video
ID                                       : 2
Format                                   : VC-1
Format profile                           : MP@HL
Codec ID                                 : WMV3
Codec ID/Info                            : Windows Media Video 9
Codec ID/Hint                            : WMV3
Description of the codec                 : Windows Media Video 9
Duration                                 : 3h 50mn
Bit rate mode                            : Variable
Bit rate                                 : 174 Kbps
Width                                    : 1 280 pixels
Height                                   : 720 pixels
Display aspect ratio                     : 16:9
Frame rate                               : 29.970 fps
Color space                              : YUV
Chroma subsampling                       : 4:2:0
Bit depth                                : 8 bits
Scan type                                : Progressive
Compression mode                         : Lossy
Bits/(Pixel*Frame)                       : 0.006
Stream size                              : 287 MiB (78%)
Audio
ID                                       : 1
Format                                   : WMA
Format version                           : Version 2
Codec ID                                 : 161
Codec ID/Info                            : Windows Media Audio
Description of the codec                 : Windows Media Audio 9.2 -  48 kbps, 44 kHz, mono 1-pass CBR
Duration                                 : 3h 50mn
Bit rate mode                            : Constant
Bit rate                                 : 48.0 Kbps
Channel count                            : 1 channel
Sampling rate                            : 44.1 KHz
Bit depth                                : 16 bits
Stream size                              : 79.3 MiB (22%)
Скриншоты:
Скачать .torrent

Для того, чтобы скачать торрент-файл

Алина Гесс - Денег хватает всегда (2017)

с нашего сайта, Вам необходимо Войти на сайт под своим логином! Если у Вас ещё нет логина, тогда Вам нужно сначала Зарегистрироваться!

Как скачивать? · Что такое торрент? · Рейтинг и ограничения

Показать сообщения:    
Ответить на тему

Алина Гесс - Денег хватает всегда (2017) скачать торрент (torrent), видеоуроки, тренинги, обучающее видео и видеокурсы

Текущее время: Сегодня 21:14

Часовой пояс: GMT + 4



Вы не можете начинать темы
Вы не можете отвечать на сообщения
Вы не можете редактировать свои сообщения
Вы не можете удалять свои сообщения
Вы не можете голосовать в опросах
Вы не можете прикреплять файлы к сообщениям
Вы не можете скачивать файлы