HTML Academy - Профессиональный Node.js (2018)

Ответить на тему
 
Автор Сообщение

Yulya ®

HTML Academy | Профессиональный Node.js (2018) PCRec [H.264/1080p-LQ] - Автор (режиссер): HTML Academy
Жанр: Программирование, JavaScript, Node.js
Описание:
Курс предназначен для тех, кто прошёл «Профессиональный JavaScript, уровень 2», или для разработчиков, желающих научиться работать с Node.js.
Продолжительность: 19:52:45
Качество видео: PCRec
Видео: AVC/H.264, 1920x1080, ~644-1510 Kbps
Аудио: AAC, 2 ch, 255-256 Kbps

Mediainfo:

Общее
Полное имя : .\01. Привет, мир!.mp4
Формат : MPEG-4
Профиль формата : Base Media / Version 2
Идентификатор кодека : mp42 (mp42/mp41/isom/avc1)
Размер файла : 911 Мбайт
Продолжительность : 2 ч. 17 м.
Режим общего битрейта : Переменный
Общий поток : 925 Кбит/сек
Дата кодирования : UTC 2018-02-05 20:24:22
Дата пометки : UTC 2018-02-05 20:24:22
Видео
Идентификатор : 1
Формат : AVC
Формат/Информация : Advanced Video Codec
Профиль формата : High@L4
Настройки формата : CABAC / 4 Ref Frames
Параметр CABAC формата : Да
Параметр RefFrames формата : 4 кадра
Идентификатор кодека : avc1
Идентификатор кодека/Информация : Advanced Video Coding
Продолжительность : 2 ч. 17 м.
Битрейт : 665 Кбит/сек
Ширина : 1920 пикселей
Высота : 1080 пикселей
Соотношение сторон : 16:9
Режим частоты кадров : Постоянный
Частота кадров : 24,000 кадра/сек
Цветовое пространство : YUV
Субдискретизация насыщенности : 4:2:0
Битовая глубина : 8 бит
Тип развёртки : Прогрессивная
Бит/(Пиксели*Кадры) : 0.013
Размер потока : 655 Мбайт (72%)
Библиотека кодирования : x264 core 155 r10 b00bcaf
Настройки программы : cabac=1 / ref=4 / deblock=1:0:0 / analyse=0x3:0x113 / me=hex / subme=8 / psy=1 / psy_rd=1.00:0.00 / mixed_ref=1 / me_range=16 / chroma_me=1 / trellis=2 / 8x8dct=1 / cqm=0 / deadzone=21,11 / fast_pskip=1 / chroma_qp_offset=-2 / threads=34 / lookahead_threads=5 / sliced_threads=0 / nr=0 / decimate=1 / interlaced=0 / bluray_compat=0 / stitchable=1 / constrained_intra=0 / bframes=3 / b_pyramid=2 / b_adapt=2 / b_bias=0 / direct=3 / weightb=1 / open_gop=0 / weightp=2 / keyint=infinite / keyint_min=24 / scenecut=40 / intra_refresh=0 / rc_lookahead=50 / rc=crf / mbtree=1 / crf=20.0 / qcomp=0.60 / qpmin=5 / qpmax=69 / qpstep=4 / vbv_maxrate=5500 / vbv_bufsize=15000 / crf_max=0.0 / nal_hrd=none / filler=0 / ip_ratio=1.40 / aq=1:1.00
Дата кодирования : UTC 2018-02-05 20:24:22
Дата пометки : UTC 2018-02-05 20:24:22
Цветовой диапазон : Limited
Основные цвета : BT.709
Характеристики трансфера : BT.709
Коэффициенты матрицы : BT.709
Аудио
Идентификатор : 2
Формат : AAC
Формат/Информация : Advanced Audio Codec
Профиль формата : LC
Идентификатор кодека : mp4a-40-2
Продолжительность : 2 ч. 17 м.
Вид битрейта : Переменный
Битрейт : 256 Кбит/сек
Каналы : 2 канала
Расположение каналов : Front: L R
Частота : 48,0 КГц
Частота кадров : 46,875 кадров/сек (1024 SPF)
Метод сжатия : С потерями
Размер потока : 252 Мбайт (28%)
Дата кодирования : UTC 2018-02-05 20:24:22
Дата пометки : UTC 2018-02-05 20:24:22

Дополнительная информация:

В раздаче имеются архивы! В них содержится исходники.

Программа курса:

Раздел 1 Привет, мир!
Что такое Node.js?
REPL — что это и как работает.
Как запустить программу.
Глобальные переменные.
Переменные окружения.
Раздел 2 Модули, пакеты и дебаггер
Что такое модуль и как он устроен.
Особенности загрузки модулей.
Очерёдность.
Пакетный менеджер npm: как работает, как устроен.
Дебаггер.
Раздел 3 Файловая система
Что такое Event Loop.
Особенности — асинхронные и синхронные запросы.
Файловая система: особенности, что можно делать, что нельзя.
Встроенные пакеты для работы с файловой системой.
Buffer или как прочесть очень большой файл.
Как создать, обновить, прочитать и удалить файл.
Как прочесть все файлы на диске.
Тестирование в Node.js.
Раздел 4 HTTP и асинхронные функции
Синхронное выполнение, против асинхронного.
Подходы к асинхронному программированию — Async и Promise.
Паттерн Event Emitter.
Что такое Stream и как им управлять.
HTTP — тёмная сторона.
Работа с сервером.
Запрос-ответ. Чтение-запись.
Раздел 5 REST и API
Как придумать API.
Что такое REST, как писать REST-приложения.
Тестирование REST-приложения.
Фреймворк Express.
Загрузка и обработка данных.
Формат файла — MIME type.
Раздел 6 Базы данных
Базы данных: подходы, различия, особенности.
Подходы SQL и NoSQL. Как выбрать.
База данных MongoDB.
Работа с документами.
Как пользоваться GridFS.
Раздел 7 Деплой и запуск приложений
Продакшен.
Чем отличается режим продакшена от других.
Логирование.
Как найти проблему.
Снятие параметров, решение проблем.
Раздел 8 Микросервисы
Stateless- и stateful-приложения.
Кластеризация.
Где хранить состояния.
Как синхронизироваться.
Раздел 9 Типизированный JavaScript
TypeScript — типизированный JavaScript.
Работа, компиляция.
Теория типов.
Рефакторинг.
Раздел 10 Финал
Подводим итоги интенсива. Что делать дальше.
Защита проекта
Интенсив завершается защитой проекта, где ваш проект проверяется в соответствии с профессиональными критериями качества.
Скриншоты:
Скачать .torrent

Для того, чтобы скачать торрент-файл

HTML Academy - Профессиональный Node.js (2018)

с нашего сайта, Вам необходимо Войти на сайт под своим логином! Если у Вас ещё нет логина, тогда Вам нужно сначала Зарегистрироваться!

Как скачивать? · Что такое торрент? · Рейтинг и ограничения

Показать сообщения:    
Ответить на тему

HTML Academy - Профессиональный Node.js (2018) скачать торрент (torrent), видеоуроки, тренинги, обучающее видео и видеокурсы

Текущее время: Сегодня 15:39

Часовой пояс: GMT + 4



Вы не можете начинать темы
Вы не можете отвечать на сообщения
Вы не можете редактировать свои сообщения
Вы не можете удалять свои сообщения
Вы не можете голосовать в опросах
Вы не можете прикреплять файлы к сообщениям
Вы не можете скачивать файлы