Специалист - Microsoft Word 2010-2013. Уровень 2. Расширенные возможности (2014)

Ответить на тему
 
Автор Сообщение

Yulya ®

Специалист | Microsoft Word 2010-2013. Уровень 2. Расширенные возможности (2014) PCRec [H.264]- Автор (режиссер): Специалист
Жанр: Microsoft Office
Продолжительность: 12:29:50
Качество видео: PCRec
Видео: AVC/H.264, 876x672, ~50 Kbps
Аудио: AAC, 2 ch, 76 Kbps
Описание:
По роду своей деятельности Вы часто сталкиваетесь с созданием документов? Вы уже знакомы с основными приемами оформления документов, но понимаете, что многое еще неизвестно и совершенству работе с программой нет предела?
Тогда этот курс точно для Вас!
Вы научитесь профессионально работать с документами – быстро форматировать и редактировать текст; создавать графические схемы и диаграммы; создавать документы для индивидуальной рассылки по базе клиентов; отслеживать изменения при совместной работе над документом в корпоративной среде; создавать различные бланки: шаблоны и формы; защищать данные.
В курсе будет рассмотрен как мощный функционал обеих версий Microsoft Word 2013/2010, так и новые возможности MS Word 2013, такие как: более профессиональный уровень работы с контентом с помощью функции выравнивания, добавление онлайн видео и фотографий, обмен документами с рецензентами и другими пользователями, онлайн-презентация документа и еще много интересного

Mediainfo:

General
Complete name : D:\Торренты\[Специалист] Word. Уровень 2\1_1.mp4
Format : MPEG-4
Format profile : Base Media / Version 2
Codec ID : mp42 (mp42/isom)
File size : 58.9 MiB
Duration : 1 h 3 min
Overall bit rate mode : Variable
Overall bit rate : 131 kb/s
Video
ID : 1
Format : AVC
Format/Info : Advanced Video Codec
Format profile : High@L3.1
Format settings : CABAC / 4 Ref Frames
Format settings, CABAC : Yes
Format settings, ReFrames : 4 frames
Codec ID : avc1
Codec ID/Info : Advanced Video Coding
Duration : 1 h 3 min
Source duration : 1 h 3 min
Bit rate : 50.0 kb/s
Width : 876 pixels
Height : 672 pixels
Display aspect ratio : 4:3
Frame rate mode : Variable
Frame rate : 15.000 FPS
Minimum frame rate : 15.000 FPS
Maximum frame rate : 15.003 FPS
Color space : YUV
Chroma subsampling : 4:2:0
Bit depth : 8 bits
Scan type : Progressive
Bits/(Pixel*Frame) : 0.006
Stream size : 22.6 MiB (38%)
Source stream size : 22.6 MiB (38%)
Writing library : x264 core 125 r2200 999b753
Encoding settings : cabac=1 / ref=3 / deblock=1:0:0 / analyse=0x3:0x113 / me=hex / subme=7 / psy=1 / psy_rd=1.00:0.00 / mixed_ref=1 / me_range=16 / chroma_me=1 / trellis=1 / 8x8dct=1 / cqm=0 / deadzone=21,11 / fast_pskip=1 / chroma_qp_offset=-2 / threads=6 / lookahead_threads=1 / sliced_threads=0 / nr=0 / decimate=1 / interlaced=0 / bluray_compat=0 / constrained_intra=0 / bframes=3 / b_pyramid=2 / b_adapt=1 / b_bias=0 / direct=1 / weightb=1 / open_gop=0 / weightp=2 / keyint=250 / keyint_min=14 / scenecut=40 / intra_refresh=0 / rc_lookahead=40 / rc=2pass / mbtree=1 / bitrate=50 / ratetol=1.0 / qcomp=0.60 / qpmin=0 / qpmax=69 / qpstep=4 / cplxblur=20.0 / qblur=0.5 / ip_ratio=1.40 / aq=1:1.00
Language : English
mdhd_Duration : 3785196
Audio
ID : 2
Format : AAC
Format/Info : Advanced Audio Codec
Format profile : LC
Codec ID : mp4a-40-2
Duration : 1 h 3 min
Source duration : 1 h 3 min
Bit rate mode : Variable
Bit rate : 76.0 kb/s
Channel(s) : 2 channels
Channel positions : Front: L R
Sampling rate : 44.1 kHz
Frame rate : 43.066 FPS (1024 SPF)
Compression mode : Lossy
Stream size : 34.3 MiB (58%)
Source stream size : 34.3 MiB (58%)
Language : English

Дополнительная информация:

В раздачу входят:
1) Видеозаписи курса.
2) Методички, в том числе и по сочетаниям клавиш.
3) Документы с практическими и домашними заданиями.
И прочие дополнительные материалы, что фигурировали в курсе.
По окончании курса Вы будете уметь:
- профессионально и быстро форматировать документы Word любой сложности
- строить диаграммы для наглядного представления табличных и текстовых данных (выразительные схемы SmartArt)
- добавлять таблицы и диаграммы Excel в документ Word с/без сохранением связи с источником
- эффективно работать со стилями – приводить текст с различным оформлением к единому внешнему виду, собирать данные из разных - документов
- мгновенно создавать оглавление документа
- создавать сложные колонтитулы
- делать рассылку индивидуальных писем по всей базе клиентов, потратив на выполнение задачи минимум времени
- редактировать данные в режиме рецензирования при совместной работе над документом
- создавать и использовать шаблоны
- защищать документы
- использовать макросы для автоматизации выполняемых задач в документе
Программа курса
Модуль 1. Основные приемы форматирования документа
Форматирование абзацев
Выравнивание, отступы, положение на странице
Границы и заливки
Списки: нумерованные, маркированные, многоуровневые
Выравнивание текста в абзаце по горизонтали с помощью табуляции
Сортировка абзацев
Оформление текста в колонки
Автоматическая нумерация строк в договорах и патентах
Использование инструмента «поиск и замена» для исправления форматирования документа
Модуль 2. Работа с таблицами и графическими объектами
Работа с таблицами:
Преобразование текста в таблицу и наоборот
Повторение шапки таблицы на каждой странице
Вычисления в таблице
Построение диаграмм для сравнения данных
Вставка диаграмм и таблиц Excel в документ Word с/без сохранением связи с данными Excel
Создание графических схем SmartArt
Вставка рисунков, фигур. Группировка графических объектов
Вставка математических формул
Модуль 3. Работа с большими документами
Создание стилевой разметки документа с помощью экспресс-стилей
Операции со стилями:
Связь стилей с многоуровневыми стилями
Автоматическая нумерация заголовков
Редактирование существующих стилей
Создание новых стилей
Сравнение стилей с помощью инспектора стилей
Копирование стилей из других документов
Добавление стилей в шаблон
Вставка названий для таблиц, иллюстраций, схем и т.п.
Создание перекрестных ссылок на элементы документа
Создание списков: таблиц, иллюстраций, схем, литературы
Вставка оглавления
Добавление титульной страницы
Навигация по документу с использованием:
Области навигации
Объектов перехода: закладок, сносок, объектов и т.д.
Работа с главным и вложенными документами:
Разбиение больших документов на несколько вложенных
Создание главного документа и добавление в него вложенных документов
Работа с разделами документа:
Изменение ориентации страниц для отдельных страниц документов
Создание различных колонтитулов в каждом разделе
Настройка вертикального выравнивания текста на странице
Использование экспресс-блоков для вставки различных данных:
Вставка стандартных блоков
Создание собственных блоков
Модуль 4. Почтовые рассылки
Создание документов слияния: письма, конверты, сообщения электронной почты, наклейки.
Применение правил и полей Word в документах слияния
Модуль 5. Макросы
Рецензирование документа в режиме исправлений:
Запись исправлений
Принятие и отклонение исправлений
Сравнение документов и объединение исправлений
Ограничение возможностей редактирования
Формы
Шаблоны документов
Автоматизация команд макросами:
Запись макроса
Редактирование макроса
Создание кнопки для запуска макроса на панели быстрого доступа
Скриншоты:
Скачать .torrent

Для того, чтобы скачать торрент-файл

Специалист - Microsoft Word 2010-2013. Уровень 2. Расширенные возможности (2014)

с нашего сайта, Вам необходимо Войти на сайт под своим логином! Если у Вас ещё нет логина, тогда Вам нужно сначала Зарегистрироваться!

Как скачивать? · Что такое торрент? · Рейтинг и ограничения

Показать сообщения:    
Ответить на тему

Специалист - Microsoft Word 2010-2013. Уровень 2. Расширенные возможности (2014) скачать торрент (torrent), видеоуроки, тренинги, обучающее видео и видеокурсы

Текущее время: Сегодня 01:14

Часовой пояс: GMT + 4



Вы не можете начинать темы
Вы не можете отвечать на сообщения
Вы не можете редактировать свои сообщения
Вы не можете удалять свои сообщения
Вы не можете голосовать в опросах
Вы не можете прикреплять файлы к сообщениям
Вы не можете скачивать файлы