ITVDN - VUE.JS (2018)

Ответить на тему
 
Автор Сообщение

Yulya ®

ITVDN | VUE.JS (2018) PCRec [H.264]- Автор (режиссер): Сергей Патёха
Производство: ITVDN
Жанр: Программирование, JavaScript, Vue.js
Описание:
Курс Vue.js состоит из 6 уроков, на которых учащиеся ознакомятся с новой библиотекой JavaScript – Vue. На данном курсе учащиеся смогут изучить основные элементы для работы с фреймворком, рассмотрят различия библиотеки Vue c уже существующими а также рассмотрят применение Vue.js для разработки приложения используя сервер Node.js На курсе Vue.js студенты выучат привязки элементов на странице, изучат понятие частичного отображения и применения компонентов библиотеки на страницу. После прохождения курса, Вы будете понимать принципы использования библиотеки Vue.js, а также сможете создать собственное веб-приложение используя маршрутизацию страниц и шаблоны.
Продолжительность: 06:02:27
Качество видео: PCRec
Видео: AVC/H.264, 1280x720, ~118-594 Kbps
Аудио: AAC, 2 ch, 125-191 Kbps

Mediainfo:

Общее
Полное имя : .\[ITVDN] VUE.JS\01 Введение в библиотеку Vue.js.mp4
Формат : MPEG-4
Профиль формата : Base Media / Version 2
Идентификатор кодека : mp42 (isom/mp42)
Размер файла : 79,7 Мбайт
Продолжительность : 45 м. 2 с.
Режим общего битрейта : Переменный
Общий поток : 248 Кбит/сек
Дата кодирования : UTC 2018-02-27 18:40:31
Дата пометки : UTC 2018-02-27 18:40:31
gsst : 0
gstd : 2702616
Видео
Идентификатор : 1
Формат : AVC
Формат/Информация : Advanced Video Codec
Профиль формата : Main@L3.1
Настройки формата : CABAC / 3 Ref Frames
Параметр CABAC формата : Да
Параметр RefFrames формата : 3 кадра
Идентификатор кодека : avc1
Идентификатор кодека/Информация : Advanced Video Coding
Продолжительность : 45 м. 2 с.
Битрейт : 119 Кбит/сек
Ширина : 1280 пикселей
Высота : 720 пикселей
Соотношение сторон : 16:9
Режим частоты кадров : Постоянный
Частота кадров : 25,000 кадров/сек
Цветовое пространство : YUV
Субдискретизация насыщенности : 4:2:0
Битовая глубина : 8 бит
Тип развёртки : Прогрессивная
Бит/(Пиксели*Кадры) : 0.005
Размер потока : 38,2 Мбайт (48%)
Заголовок : ISO Media file produced by Google Inc. Created on: 02/27/2018.
Дата кодирования : UTC 2018-02-27 18:40:31
Дата пометки : UTC 2018-02-27 18:40:31
Цветовой диапазон : Limited
Основные цвета : BT.709
Характеристики трансфера : BT.709
Коэффициенты матрицы : BT.709
Аудио
Идентификатор : 2
Формат : AAC
Формат/Информация : Advanced Audio Codec
Профиль формата : LC
Идентификатор кодека : mp4a-40-2
Продолжительность : 45 м. 2 с.
Вид битрейта : Переменный
Битрейт : 126 Кбит/сек
Каналы : 2 канала
Расположение каналов : Front: L R
Частота : 44,1 КГц
Частота кадров : 43,066 кадра/сек (1024 SPF)
Метод сжатия : С потерями
Размер потока : 40,5 Мбайт (51%)
Заголовок : ISO Media file produced by Google Inc. Created on: 02/27/2018.
Дата кодирования : UTC 2018-02-27 18:40:31
Дата пометки : UTC 2018-02-27 18:40:31

Программа курса:

Vue introduction
Form binding
Conditional rendering
Vue components
Vue animations
Routing
Скриншоты:
Скачать .torrent

Для того, чтобы скачать торрент-файл

ITVDN - VUE.JS (2018)

с нашего сайта, Вам необходимо Войти на сайт под своим логином! Если у Вас ещё нет логина, тогда Вам нужно сначала Зарегистрироваться!

Как скачивать? · Что такое торрент? · Рейтинг и ограничения

Показать сообщения:    
Ответить на тему

ITVDN - VUE.JS (2018) скачать торрент (torrent), видеоуроки, тренинги, обучающее видео и видеокурсы

Текущее время: Сегодня 02:35

Часовой пояс: GMT + 4



Вы не можете начинать темы
Вы не можете отвечать на сообщения
Вы не можете редактировать свои сообщения
Вы не можете удалять свои сообщения
Вы не можете голосовать в опросах
Вы не можете прикреплять файлы к сообщениям
Вы не можете скачивать файлы