CtrlPaint.com - 3D for illustrators. 3D Paintover Starter Kit (2016)

Ответить на тему
 
Автор Сообщение

Yulya ®

CtrlPaint.com | 3D for illustrators. 3D Paintover Starter Kit (2016) PCRec [H.264/1080p-LQ] [RU/EN] - Автор (режиссер): Matt Kohr
Производство: CtrlPaint.com
Жанр: 3D графика
Описание:
3D для иллюстраторов (комплексный курс)
Для 2D художников могут быть очень полезны 3D программы, но они отпугивают начинающих. Курс 3D для иллюстрации – попытка заполнить этот промежуток. Раздел "Первые шаги" начинает путешествие в изучение 3D программ с точки зрения иллюстратора, с самого начала.
Этот курс сосредотачивается на том, чтобы получить максимум пользы, изучая минимум специальных знаний, используя бесплатные 3D программы. 3D графика – очень глубокая тема, и этот урок не относится к теме набросков. Видео этого курса является учебным пособием для того, чтобы вы начали изучение 3D.
Вместо того, чтобы изучать инструменты и пункты меню 3D программ, этот курс показывает сильные техники и лучшие подходы. Мы изучим такие идеи как ID карты, HDRI окружение, фиксированные позиции камеры, рендеринг и многое другое.
Продолжительность: 06:18:53
Качество видео: PCRec
Перевод: Дублированный, Alpixar
Язык озвучки: Русский, Английский
Видео: AVC/H.264, 1920x1080, ~343-2229 Kbps
Аудио 1: AAC, 1 ch, 128 Kbps - Русский, дублированный (Alpixar)
Аудио 2: AAC, 2 ch, 151-317 Kbps - Английский, оригинал

Mediainfo:

General
Complete name : 02_01. Intro.mp4
Format : MPEG-4
Format profile : Base Media
Codec ID : isom
File size : 79.1 MiB
Duration : 6mn 42s
Overall bit rate mode : Variable
Overall bit rate : 1 649 Kbps
Video
ID : 1
Format : AVC
Format/Info : Advanced Video Codec
Format profile : High@L4.2
Format settings, CABAC : Yes
Format settings, ReFrames : 3 frames
Codec ID : avc1
Codec ID/Info : Advanced Video Coding
Duration : 6mn 42s
Bit rate mode : Variable
Bit rate : 1 195 Kbps
Maximum bit rate : 12.0 Mbps
Width : 1 920 pixels
Height : 1 080 pixels
Display aspect ratio : 16:9
Frame rate mode : Constant
Frame rate : 29.970 fps
Standard : NTSC
Color space : YUV
Chroma subsampling : 4:2:0
Bit depth : 8 bits
Scan type : Progressive
Bits/(Pixel*Frame) : 0.019
Stream size : 57.3 MiB (72%)
Color primaries : BT.709
Transfer characteristics : BT.709
Matrix coefficients : BT.709
Language : English
Audio #1
ID : 2
Format : AAC
Format/Info : Advanced Audio Codec
Format profile : LC
Codec ID : 40
Duration : 6mn 42s
Duration_LastFrame : 28ms
Bit rate mode : Constant
Bit rate : 128 Kbps
Channel(s) : 2 channels
Channel(s)_Original : 1 channel
Channel positions : Front: C
Sampling rate : 44.1 KHz
Compression mode : Lossy
Stream size : 6.14 MiB (8%)
Language : Russian
Audio #2
ID : 3
Format : AAC
Format/Info : Advanced Audio Codec
Format profile : LC
Codec ID : 40
Duration : 6mn 42s
Bit rate mode : Constant
Bit rate : 317 Kbps
Channel(s) : 2 channels
Channel positions : Front: L R
Sampling rate : 48.0 KHz
Compression mode : Lossy
Stream size : 15.2 MiB (19%)
Language : English

Дополнительная информация:

Дополнительная информация на офсайте.
Как выбрать звуковую дорожку по умолчанию (ссылка).
Скриншоты:

Дополнительные скриншоты:

Скачать .torrent

Для того, чтобы скачать торрент-файл

CtrlPaint.com - 3D for illustrators. 3D Paintover Starter Kit (2016)

с нашего сайта, Вам необходимо Войти на сайт под своим логином! Если у Вас ещё нет логина, тогда Вам нужно сначала Зарегистрироваться!

Как скачивать? · Что такое торрент? · Рейтинг и ограничения

Показать сообщения:    
Ответить на тему

CtrlPaint.com - 3D for illustrators. 3D Paintover Starter Kit (2016) скачать торрент (torrent), видеоуроки, тренинги, обучающее видео и видеокурсы

Текущее время: Сегодня 23:50

Часовой пояс: GMT + 4



Вы не можете начинать темы
Вы не можете отвечать на сообщения
Вы не можете редактировать свои сообщения
Вы не можете удалять свои сообщения
Вы не можете голосовать в опросах
Вы не можете прикреплять файлы к сообщениям
Вы не можете скачивать файлы