ITVDN - HTML5 И CSS3 STARTER (2018)

Ответить на тему
 
Автор Сообщение

Yulya ®

ITVDN | HTML5 И CSS3 STARTER (2018) PCRec [H.264/720p-LQ]- Автор (режиссер): ITVDN
Производство: Владимир Виноградов
Жанр: HTML5, CSS3, Верстка
Описание:
Курс состоит из восьми логически взаимосвязанных уроков, на которых слушатель ознакомится с языком разметки гипертекста HTML, научится создавать html страницы. Познакомится с каскадными таблицами стилей – CSS, предназначенных для оформления веб страниц.
Продолжительность: 08:00:47
Качество видео: PCRec
Видео: AVC/H.264, 1280x720, ~253-379 Kbps
Аудио: AAC, 2 ch, 255-256

Mediainfo:

Общее
Полное имя : .\02 Работа с изображениями, таблицами и списками.mp4
Формат : MPEG-4
Профиль формата : Base Media / Version 2
Идентификатор кодека : mp42 (mp42/mp41/isom/avc1)
Размер файла : 214 Мбайт
Продолжительность : 58 м. 11 с.
Режим общего битрейта : Переменный
Общий поток : 514 Кбит/сек
Дата кодирования : UTC 2018-02-26 12:53:03
Дата пометки : UTC 2018-02-26 12:53:03
Видео
Идентификатор : 1
Формат : AVC
Формат/Информация : Advanced Video Codec
Профиль формата : High@L3.2
Настройки формата : CABAC / 5 Ref Frames
Параметр CABAC формата : Да
Параметр RefFrames формата : 5 кадров
Идентификатор кодека : avc1
Идентификатор кодека/Информация : Advanced Video Coding
Продолжительность : 58 м. 11 с.
Битрейт : 254 Кбит/сек
Ширина : 1280 пикселей
Высота : 720 пикселей
Соотношение сторон : 16:9
Режим частоты кадров : Постоянный
Частота кадров : 25,000 кадров/сек
Цветовое пространство : YUV
Субдискретизация насыщенности : 4:2:0
Битовая глубина : 8 бит
Тип развёртки : Прогрессивная
Бит/(Пиксели*Кадры) : 0.011
Размер потока : 106 Мбайт (49%)
Библиотека кодирования : x264 core 155 r10 b00bcaf
Настройки программы : cabac=1 / ref=5 / deblock=1:0:0 / analyse=0x3:0x113 / me=hex / subme=8 / psy=1 / psy_rd=1.00:0.00 / mixed_ref=1 / me_range=16 / chroma_me=1 / trellis=2 / 8x8dct=1 / cqm=0 / deadzone=21,11 / fast_pskip=1 / chroma_qp_offset=-2 / threads=22 / lookahead_threads=3 / sliced_threads=0 / nr=0 / decimate=1 / interlaced=0 / bluray_compat=0 / stitchable=1 / constrained_intra=0 / bframes=3 / b_pyramid=2 / b_adapt=2 / b_bias=0 / direct=3 / weightb=1 / open_gop=0 / weightp=2 / keyint=infinite / keyint_min=25 / scenecut=40 / intra_refresh=0 / rc_lookahead=50 / rc=crf / mbtree=1 / crf=20.0 / qcomp=0.60 / qpmin=5 / qpmax=69 / qpstep=4 / vbv_maxrate=2750 / vbv_bufsize=7500 / crf_max=0.0 / nal_hrd=none / filler=0 / ip_ratio=1.40 / aq=1:1.00
Дата кодирования : UTC 2018-02-26 12:53:03
Дата пометки : UTC 2018-02-26 12:53:03
Цветовой диапазон : Limited
Основные цвета : BT.709
Характеристики трансфера : BT.709
Коэффициенты матрицы : BT.709
Аудио
Идентификатор : 2
Формат : AAC
Формат/Информация : Advanced Audio Codec
Профиль формата : LC
Идентификатор кодека : mp4a-40-2
Продолжительность : 58 м. 11 с.
Вид битрейта : Переменный
Битрейт : 256 Кбит/сек
Каналы : 2 канала
Расположение каналов : Front: L R
Частота : 48,0 КГц
Частота кадров : 46,875 кадров/сек (1024 SPF)
Метод сжатия : С потерями
Размер потока : 107 Мбайт (50%)
Дата кодирования : UTC 2018-02-26 12:53:03
Дата пометки : UTC 2018-02-26 12:53:03

Программа курса:

Урок 1: Введение в HTML.
1. История языка
2. Браузеры
3. Стандарты W3C
4. Понятие тега и атрибута
5. Структура HTML страницы
6. Понятие блочных и строчных тегов
7. Теги логической и физической разметки
8. Первая HTML страница
9. Валидация HTML страниц
10. Служебные символы
Урок 2: Работа с изображениями, таблицами и списками.
1. Рассмотрение тега img и его атрибутов.
2. Создание карты-изображения
3. Тег table.
4. Работа с таблицами.
5. Тег ul, ol, dl.
6. Работа со списками.
Урок 3: Каскадные таблицы стилей CSS3 часть 1.
1. Зачем нужны каскадные таблицы стилей.
2. Что нового в CSS3.
3. Семантика CSS.
4. Простые селекторы.
5. Единицы измерения.
6. Размеры элементов, свойства width, height.
7. Работа со шрифтами, свойство font.
8. Работа с фоном, свойство background.
9. Работа с границей, свойство border.
Урок 4: Каскадные таблицы стилей CSS3 часть 2.
1. Рассмотрение сложных селекторов.
2. Псевдоклассы и псевдоэлементы.
3. Работа с текстом, свойства text, white-space, word-break, word-spacing, write-mode, letter-spacing, line-height, vertical-align.
4. Свойства для работы со списками.
5. Свойства для работы с таблицами.
6. Подключение пользовательских шрифтов, правило @font-face.
Урок 5: Позиционирование элементов. Виды верстки.
1. Отступы и поля элементов.
2. Форматирование элементов страницы.
3. Позиционирование элементов.
4. Виды вертки.
5. Понятие адаптивной верстки.
6. Введение в Bootstrap4.
Урок 6: Семантика HTML5. Новые теги.
1. Структура страницы в HTML5.
2. Рассмотрение новых тегов.
3. Теги для работы с видео и аудио контентом.
Урок 7: Формы. Метатеги.
1. Что такое формы и зачем они нужны?
2. Создание форм.
3. Элементы форм.
4. Понятие метатегов, их виды.
5. Создание метатегов.
Урок 8. Практика. Верстка страницы. Публикация на хостинге.
Скриншоты:
Скачать .torrent

Для того, чтобы скачать торрент-файл

ITVDN - HTML5 И CSS3 STARTER (2018)

с нашего сайта, Вам необходимо Войти на сайт под своим логином! Если у Вас ещё нет логина, тогда Вам нужно сначала Зарегистрироваться!

Как скачивать? · Что такое торрент? · Рейтинг и ограничения

Показать сообщения:    
Ответить на тему

ITVDN - HTML5 И CSS3 STARTER (2018) скачать торрент (torrent), видеоуроки, тренинги, обучающее видео и видеокурсы

Текущее время: Сегодня 07:56

Часовой пояс: GMT + 4



Вы не можете начинать темы
Вы не можете отвечать на сообщения
Вы не можете редактировать свои сообщения
Вы не можете удалять свои сообщения
Вы не можете голосовать в опросах
Вы не можете прикреплять файлы к сообщениям
Вы не можете скачивать файлы