CtrlPaint.com - Arena Design. Portfolio Builder (2016)

Ответить на тему
 
Автор Сообщение

Yulya ®

CtrlPaint.com | Arena Design. Portfolio Builder (2016) PCRec [H.264/1080p-LQ] [RU] - Автор (режиссер): Matt Kohr
Производство: CtrlPaint.com
Жанр: 3D графика, дизайн компьютерных игр
Описание:
Дизайн арены (работа для портфолио)
Арены в видеоиграх – интересные и сложные темы для иллюстрации. Арена в джунглях может содержать красивые разветвляющиеся дороги, но под ней скрыты жёсткие характеристики и требования геймплея. Как результат, пространство одновременно эстетически приятно и механически осмысленно.
В этих видеоуроках вам предлагается задание – разработать одно из таких богатых игровых пространств. Как и в других работах для портфолио, я покажу мою версию выполненного задания, но вы будете создавать свою собственную интерпретацию. Вам нужно будет сосредоточиться не на моей работе, а на принятии решений, которые позволят вам применить мои инструкции для создания своей работы для портфолио.
Продолжительность: 01:07:33
Качество видео: PCRec
Перевод: Дублированный, Alpixar
Язык озвучки: Русский
Видео: AVC/H.264, 1920x1080, ~509-1896 Kbps
Аудио: AAC, 1 ch, 128 Kbps - Русский, дублированный (Alpixar)

Mediainfo:

General
Complete name : 01. Arena Design.mp4
Format : MPEG-4
Format profile : Base Media
Codec ID : isom
File size : 226 MiB
Duration : 16mn 21s
Overall bit rate : 1 930 Kbps
Video
ID : 1
Format : AVC
Format/Info : Advanced Video Codec
Format profile : Main@L4.0
Format settings, CABAC : Yes
Format settings, ReFrames : 4 frames
Codec ID : avc1
Codec ID/Info : Advanced Video Coding
Duration : 16mn 21s
Bit rate : 1 793 Kbps
Width : 1 920 pixels
Height : 1 080 pixels
Display aspect ratio : 16:9
Frame rate mode : Constant
Frame rate : 30.000 fps
Color space : YUV
Chroma subsampling : 4:2:0
Bit depth : 8 bits
Scan type : Progressive
Bits/(Pixel*Frame) : 0.029
Stream size : 210 MiB (93%)
Writing library : x264 core 144 r2525 40bb568
Language : English
Audio
ID : 2
Format : AAC
Format/Info : Advanced Audio Codec
Format profile : LC
Codec ID : 40
Duration : 16mn 21s
Duration_LastFrame : 34ms
Bit rate mode : Constant
Bit rate : 128 Kbps
Channel(s) : 2 channels
Channel(s)_Original : 1 channel
Channel positions : Front: C
Sampling rate : 44.1 KHz
Compression mode : Lossy
Stream size : 15.0 MiB (7%)
Language : Russian

Дополнительная информация:

Дополнительная информация на офсайте.
Скриншоты:

Дополнительные скриншоты:

Скачать .torrent

Для того, чтобы скачать торрент-файл

CtrlPaint.com - Arena Design. Portfolio Builder (2016)

с нашего сайта, Вам необходимо Войти на сайт под своим логином! Если у Вас ещё нет логина, тогда Вам нужно сначала Зарегистрироваться!

Как скачивать? · Что такое торрент? · Рейтинг и ограничения

Показать сообщения:    
Ответить на тему

CtrlPaint.com - Arena Design. Portfolio Builder (2016) скачать торрент (torrent), видеоуроки, тренинги, обучающее видео и видеокурсы

Текущее время: Сегодня 23:35

Часовой пояс: GMT + 4



Вы не можете начинать темы
Вы не можете отвечать на сообщения
Вы не можете редактировать свои сообщения
Вы не можете удалять свои сообщения
Вы не можете голосовать в опросах
Вы не можете прикреплять файлы к сообщениям
Вы не можете скачивать файлы