Udemy.com - Introduction to 3D Coat (2015)

Ответить на тему
 
Автор Сообщение

Yulya ®

Udemy.com | Introduction to 3D Coat (2015) PCRec [H.264/720p-LQ] [RU/EN] - Автор (режиссер): Robert Alvord
Производство: Udemy.com
Жанр: 3D графика
Описание:
Введение в 3D Coat
Автор курса познакомит вас с великолепным многофункциональным инструментом трёхмерного моделирования под названием 3D Coat (версия 4.0.04B). В этой программе вы можете скульптить твёрдые и органические поверхности используя "воксели" (Voxels), ретопологизировать свой скульпт, сделать UV-развёртку, рисовать прямо по 3D-модели (во время запекания деталей с высокополигональной модели на низкополигональную), а также экспортировать модели в большое количество различных форматов.
Этот курс включает почти 4 часа обучения и подходит как для начинающих, так и для продвинутых пользователей и профессионалов, которые хотят впервые ознакомиться с 3D Coat.
К концу учебного курса вы будете знать пользовательский интерфейс программы, будете понимать терминологию 3D Coat (например что такое "воксели") и сможете спокойно ориентироваться в основных функциях программы.
Необходимое программное обеспечение: 3D Coat 4.0.04B (или новее).
Продолжительность: 03:46:14
Качество видео: PCRec
Перевод: Дублированный, Water
Язык озвучки: Русский, Английский
Видео: AVC/H.264, 1280x720, ~183-611 Kbps
Аудио 1: AAC, 1 ch, 128 Kbps - Русский, дублированный (Water)
Аудио 2: AAC, 2 ch, 62 Kbps - Английский, оригинал

Mediainfo:

General
Complete name : 01_03. What is a Voxel.mp4
Format : MPEG-4
Format profile : Base Media
Codec ID : isom
File size : 45.7 MiB
Duration : 7mn 54s
Overall bit rate : 808 Kbps
Video
ID : 1
Format : AVC
Format/Info : Advanced Video Codec
Format profile : Baseline@L3.1
Format settings, CABAC : No
Format settings, ReFrames : 3 frames
Format settings, GOP : M=1, N=75
Codec ID : avc1
Codec ID/Info : Advanced Video Coding
Duration : 7mn 54s
Bit rate : 611 Kbps
Width : 1 280 pixels
Height : 720 pixels
Display aspect ratio : 16:9
Frame rate mode : Constant
Frame rate : 30.000 fps
Color space : YUV
Chroma subsampling : 4:2:0
Bit depth : 8 bits
Scan type : Progressive
Bits/(Pixel*Frame) : 0.022
Stream size : 34.5 MiB (76%)
Language : English
Audio #1
ID : 2
Format : AAC
Format/Info : Advanced Audio Codec
Format profile : LC
Codec ID : 40
Duration : 7mn 54s
Duration_LastFrame : 25ms
Bit rate mode : Constant
Bit rate : 128 Kbps
Channel(s) : 2 channels
Channel(s)_Original : 1 channel
Channel positions : Front: C
Sampling rate : 44.1 KHz
Compression mode : Lossy
Stream size : 7.24 MiB (16%)
Language : Russian
Audio #2
ID : 3
Format : AAC
Format/Info : Advanced Audio Codec
Format profile : LC
Codec ID : 40
Duration : 7mn 54s
Bit rate mode : Constant
Bit rate : 61.5 Kbps
Channel(s) : 2 channels
Channel positions : Front: L R
Sampling rate : 44.1 KHz
Compression mode : Lossy
Stream size : 3.48 MiB (8%)
Language : English

Продолжение описания:

3D Coat – компьютерная программа для моделирования различных органических объектов и грубых низкополигональных 3D-моделей. Предоставляет широкий набор инструментов, которые позволяют пользователям создавать скульптуры, добавляя топологию (автоматически или вручную), создавать UV-карты (автоматически или вручную), интерактивно текстурировать поверхность модели, производить визуализацию статичных сцен и круговую анимацию модели.
3D Coat специализируется на моделировании воксельных и полигональных скульптур – с использованием инновационных технологий (Dynamic Tessellation) и полного набора необходимых инструментов.
3D Coat может также использоваться в качестве среды для модификации импортированных 3D-моделей, полученных с помощью других 3D-программ.
Импортированные модели могут быть преобразованы в воксельные скульптуры – для дальнейшего уточнения и добавления новых деталей. Также для них можно создать UV-развёртку, маппинг, карты замещения, карты бликов и карту диффузного цвета.
После того как все изменения были завершены, посредством специального соединения они могут быть перенесены в исходное программное обеспечение с сохранёнными развёртками, текстурами и полной информацией об изменённом объекте.

Дополнительная информация:

Дополнительная информация на офсайте.
Как выбрать звуковую дорожку по умолчанию (ссылка).
Скриншоты:

Дополнительные скриншоты:

Скачать .torrent

Для того, чтобы скачать торрент-файл

Udemy.com - Introduction to 3D Coat (2015)

с нашего сайта, Вам необходимо Войти на сайт под своим логином! Если у Вас ещё нет логина, тогда Вам нужно сначала Зарегистрироваться!

Как скачивать? · Что такое торрент? · Рейтинг и ограничения

Показать сообщения:    
Ответить на тему

Udemy.com - Introduction to 3D Coat (2015) скачать торрент (torrent), видеоуроки, тренинги, обучающее видео и видеокурсы

Текущее время: Сегодня 00:23

Часовой пояс: GMT + 4



Вы не можете начинать темы
Вы не можете отвечать на сообщения
Вы не можете редактировать свои сообщения
Вы не можете удалять свои сообщения
Вы не можете голосовать в опросах
Вы не можете прикреплять файлы к сообщениям
Вы не можете скачивать файлы