Академия верстки - Базовый JavaScript (2017)

Ответить на тему
 
Автор Сообщение

Yulya ®

Академия верстки | Базовый JavaScript (2017) PCRec [H.264] - Автор (режиссер): Академия верстки
Производство: Евгений Вакуленко
Жанр: Программирование, JavaScript
Описание:
Этот видеокурс в первую очередь предназначен для тех, кто уже знает HTML и CSS и хочет перейти к JavaScript. Именно JavaScript сделает из вас полноценного фронт-енд разработчика, который сможет не только верстать макеты, но и нырять в функциональность проекта.
Продолжительность: 16:41:15
Качество видео: PCRec
Видео: AVC/H.264, 1280x720-1920x1080, ~162-471 Kbps
Аудио: AAC, 2 ch, 125 Kbps

Mediainfo:

Общее
Полное имя : .\Unit 09 - область видимости (scope), замыкание и глобалка\Unit 9 - область видимости (scope), замыкание и глобалка.MP4
Формат : MPEG-4
Профиль формата : Base Media
Идентификатор кодека : isom (isom/iso2/avc1/mp41)
Размер файла : 63,5 Мбайт
Продолжительность : 29 м. 4 с.
Режим общего битрейта : Переменный
Общий поток : 305 Кбит/сек
Дата кодирования : UTC 2017-01-26 13:46:10
Дата пометки : UTC 2017-01-26 13:46:10
Видео
Идентификатор : 1
Формат : AVC
Формат/Информация : Advanced Video Codec
Профиль формата : Main@L3.2
Настройки формата : CABAC / 3 Ref Frames
Параметр CABAC формата : Да
Параметр RefFrames формата : 3 кадра
Идентификатор кодека : avc1
Идентификатор кодека/Информация : Advanced Video Coding
Продолжительность : 29 м. 4 с.
Битрейт : 174 Кбит/сек
Ширина : 1280 пикселей
Высота : 720 пикселей
Соотношение сторон : 16:9
Режим частоты кадров : Постоянный
Частота кадров : 60,000 кадров/сек
Цветовое пространство : YUV
Субдискретизация насыщенности : 4:2:0
Битовая глубина : 8 бит
Тип развёртки : Прогрессивная
Бит/(Пиксели*Кадры) : 0.003
Размер потока : 36,1 Мбайт (57%)
Дата кодирования : UTC 2017-01-26 13:46:10
Дата пометки : UTC 2017-01-26 13:46:10
Цветовой диапазон : Limited
Основные цвета : BT.709
Характеристики трансфера : BT.709
Коэффициенты матрицы : BT.709
Аудио
Идентификатор : 2
Формат : AAC
Формат/Информация : Advanced Audio Codec
Профиль формата : LC
Идентификатор кодека : mp4a-40-2
Продолжительность : 29 м. 4 с.
Вид битрейта : Переменный
Битрейт : 126 Кбит/сек
Каналы : 2 канала
Расположение каналов : Front: L R
Частота : 44,1 КГц
Частота кадров : 43,066 кадра/сек (1024 SPF)
Метод сжатия : С потерями
Размер потока : 26,1 Мбайт (41%)
Default : Да
AlternateGroup/String : 1
Дата кодирования : UTC 2017-01-26 13:46:35
Дата пометки : UTC 2017-01-26 13:46:35
Общее
Полное имя : .\Unit 05 - Данные (part 1) методы и свойства\Unit 5 - Данные (part 1) методы и свойства.MP4
Формат : MPEG-4
Профиль формата : Base Media
Идентификатор кодека : isom (isom/iso2/avc1/mp41)
Размер файла : 80,2 Мбайт
Продолжительность : 28 м. 43 с.
Режим общего битрейта : Переменный
Общий поток : 390 Кбит/сек
Дата кодирования : UTC 2017-01-26 13:13:55
Дата пометки : UTC 2017-01-26 13:13:55
Видео
Идентификатор : 1
Формат : AVC
Формат/Информация : Advanced Video Codec
Профиль формата : High@L4.2
Настройки формата : CABAC / 2 Ref Frames
Параметр CABAC формата : Да
Параметр RefFrames формата : 2 кадра
Идентификатор кодека : avc1
Идентификатор кодека/Информация : Advanced Video Coding
Продолжительность : 28 м. 43 с.
Битрейт : 259 Кбит/сек
Ширина : 1920 пикселей
Высота : 1080 пикселей
Соотношение сторон : 16:9
Режим частоты кадров : Постоянный
Частота кадров : 60,000 кадров/сек
Цветовое пространство : YUV
Субдискретизация насыщенности : 4:2:0
Битовая глубина : 8 бит
Тип развёртки : Прогрессивная
Бит/(Пиксели*Кадры) : 0.002
Размер потока : 53,2 Мбайт (66%)
Дата кодирования : UTC 2017-01-26 13:13:55
Дата пометки : UTC 2017-01-26 13:13:55
Цветовой диапазон : Limited
Основные цвета : BT.709
Характеристики трансфера : BT.709
Коэффициенты матрицы : BT.709
Аудио
Идентификатор : 2
Формат : AAC
Формат/Информация : Advanced Audio Codec
Профиль формата : LC
Идентификатор кодека : mp4a-40-2
Продолжительность : 28 м. 43 с.
Вид битрейта : Переменный
Битрейт : 126 Кбит/сек
Каналы : 2 канала
Расположение каналов : Front: L R
Частота : 44,1 КГц
Частота кадров : 43,066 кадра/сек (1024 SPF)
Метод сжатия : С потерями
Размер потока : 25,8 Мбайт (32%)
Default : Да
AlternateGroup/String : 1
Дата кодирования : UTC 2017-01-26 13:14:14
Дата пометки : UTC 2017-01-26 13:14:14

Дополнительная информация:

В раздаче имеются архивы! В них содержится дополнительные материалы.

Программа курса:

Урок 0 - Вводная часть
Урок 1 - Основы (part 1)
Урок 2 - Основы (part 2)
Урок 3 - подробно о функциях и другом
Урок 4 - отладка кода и его дэбагинг
Урок 5 - Данные (part 1) методы и свойства
Урок 6 - Данные (part 2) объекты
Урок 7 - Данные (part 3) объекты
Урок 8 - Данные (part 4) массивы и рекурсия
Урок 9 - область видимости (scope), замыкание и глобалка
Урок 10 - написание "модуля" и регулярки
Урок 11 - контекст и конструкторы part 1
Урок 12 - контекст и конструкторы part 2
Урок 13 - контекст и конструкторы часть 3
Урок 14 - плюшки часть 1
Урок 15 - плюшки часть 2
Урок 16 - ООП в функциональном стиле
Урок 17 - ООП в прототипном стиле часть 1
Урок 18 - ООП в прототипном стиле часть 2
Урок 19 - DOM и BOM
Урок 20 - DOM поиск и nodeEl
Урок 21 - страница и store
Урок 22 - Ивенты (события) часть 1
Урок 23 - Ивенты (события) часть 2
Урок 24 - запросы, что это и как это работает
Урок 25 - Практическая часть, пишем слайдер
Урок 26 - Практическая часть, пишем калькулятор
Урок 27 - Практическая часть, пишем "игру"
Урок 28 - пишем мультиселект и правим чужой код
Урок 29 - jQuery
Урок 30 - О высоком, пожелания и плюшки?
Скриншоты:
Скачать .torrent

Для того, чтобы скачать торрент-файл

Академия верстки - Базовый JavaScript (2017)

с нашего сайта, Вам необходимо Войти на сайт под своим логином! Если у Вас ещё нет логина, тогда Вам нужно сначала Зарегистрироваться!

Как скачивать? · Что такое торрент? · Рейтинг и ограничения

Показать сообщения:    
Ответить на тему

Академия верстки - Базовый JavaScript (2017) скачать торрент (torrent), видеоуроки, тренинги, обучающее видео и видеокурсы

Текущее время: Сегодня 05:59

Часовой пояс: GMT + 4



Вы не можете начинать темы
Вы не можете отвечать на сообщения
Вы не можете редактировать свои сообщения
Вы не можете удалять свои сообщения
Вы не можете голосовать в опросах
Вы не можете прикреплять файлы к сообщениям
Вы не можете скачивать файлы