Laracasts - Skills (2014-2017)

Ответить на тему
 
Автор Сообщение

Yulya ®

Laracasts | Skills (2014-2017) PCRec [H.264] [EN]- Автор (режиссер): Laracasts
Жанр: Программирование, Laravel, Testing, PHP, JavaScript, Tooling
Описание:
Сборка всех серий, что принадлежат к категории "навыки" (Skills).
- Laravel 15 серий (шагов);
- Testing 7 серий (шагов);
- PHP 13 серий (шагов);
- JavaScript 6 серий (шагов);
- Tooling 12 серий (шагов).
Продолжительность: 91:44:48
Качество видео: PCRec
Язык озвучки: Английский
Видео: AVC/H.264, 1152x720-2304x1440, ~77-1841 Kbps
Аудио: AAC, 2 ch, 117-236 Kbps

Mediainfo:

Общее
Полное имя : .\Series\[JAVASCRIPT] Do You React\1-A-Teaser.mp4
Формат : MPEG-4
Профиль формата : Base Media / Version 2
Идентификатор кодека : mp42 (mp42/mp41/isom/avc1)
Размер файла : 13,3 Мбайт
Продолжительность : 5 м. 16 с.
Режим общего битрейта : Переменный
Общий поток : 351 Кбит/сек
Дата кодирования : UTC 2015-03-30 19:35:52
Дата пометки : UTC 2015-03-30 19:35:52
Видео
Идентификатор : 1
Формат : AVC
Формат/Информация : Advanced Video Codec
Профиль формата : High@L3.1
Настройки формата : CABAC / 4 Ref Frames
Параметр CABAC формата : Да
Параметр RefFrames формата : 4 кадра
Идентификатор кодека : avc1
Идентификатор кодека/Информация : Advanced Video Coding
Продолжительность : 5 м. 16 с.
Битрейт : 200 Кбит/сек
Ширина : 1152 пикселя
Высота : 720 пикселей
Соотношение сторон : 16:10
Режим частоты кадров : Постоянный
Частота кадров : 30,000 кадров/сек
Цветовое пространство : YUV
Субдискретизация насыщенности : 4:2:0
Битовая глубина : 8 бит
Тип развёртки : Прогрессивная
Бит/(Пиксели*Кадры) : 0.008
Размер потока : 7,54 Мбайт (57%)
Библиотека кодирования : x264 core 144 r11 40bb568
Настройки программы : cabac=1 / ref=3 / deblock=1:0:0 / analyse=0x3:0x113 / me=hex / subme=7 / psy=1 / psy_rd=1.00:0.00 / mixed_ref=1 / me_range=16 / chroma_me=1 / trellis=1 / 8x8dct=1 / cqm=0 / deadzone=21,11 / fast_pskip=1 / chroma_qp_offset=-2 / threads=48 / lookahead_threads=5 / sliced_threads=0 / nr=0 / decimate=1 / interlaced=0 / bluray_compat=0 / stitchable=1 / constrained_intra=0 / bframes=3 / b_pyramid=2 / b_adapt=1 / b_bias=0 / direct=1 / weightb=1 / open_gop=0 / weightp=2 / keyint=infinite / keyint_min=30 / scenecut=40 / intra_refresh=0 / rc_lookahead=40 / rc=2pass / mbtree=1 / bitrate=200 / ratetol=1.0 / qcomp=0.60 / qpmin=5 / qpmax=69 / qpstep=4 / cplxblur=20.0 / qblur=0.5 / vbv_maxrate=2750 / vbv_bufsize=7500 / nal_hrd=none / filler=0 / ip_ratio=1.40 / aq=1:1.00
Дата кодирования : UTC 2015-03-30 19:35:52
Дата пометки : UTC 2015-03-30 19:35:52
Цветовой диапазон : Limited
Основные цвета : BT.709
Характеристики трансфера : BT.709
Коэффициенты матрицы : BT.709
Аудио
Идентификатор : 2
Формат : AAC
Формат/Информация : Advanced Audio Codec
Профиль формата : LC
Идентификатор кодека : mp4a-40-2
Продолжительность : 5 м. 16 с.
Вид битрейта : Переменный
Битрейт : 147 Кбит/сек
Каналы : 2 канала
Расположение каналов : Front: L R
Частота : 48,0 КГц
Частота кадров : 46,875 кадров/сек (1024 SPF)
Метод сжатия : С потерями
Размер потока : 5,55 Мбайт (42%)
Дата кодирования : UTC 2015-03-30 19:35:52
Дата пометки : UTC 2015-03-30 19:35:52
Общее
Полное имя : .\Series\[JAVASCRIPT] Charting and You\1-Line-Graph-in-5 Minutes.mp4
Формат : MPEG-4
Профиль формата : Base Media / Version 2
Идентификатор кодека : mp42 (mp42/mp41/isom/avc1)
Размер файла : 21,8 Мбайт
Продолжительность : 5 м. 3 с.
Режим общего битрейта : Переменный
Общий поток : 600 Кбит/сек
Дата кодирования : UTC 2016-03-17 20:20:21
Дата пометки : UTC 2016-03-17 20:20:21
Видео
Идентификатор : 1
Формат : AVC
Формат/Информация : Advanced Video Codec
Профиль формата : High@L4
Настройки формата : CABAC / 4 Ref Frames
Параметр CABAC формата : Да
Параметр RefFrames формата : 4 кадра
Идентификатор кодека : avc1
Идентификатор кодека/Информация : Advanced Video Coding
Продолжительность : 5 м. 3 с.
Битрейт : 361 Кбит/сек
Ширина : 1728 пикселей
Высота : 1080 пикселей
Соотношение сторон : 16:10
Режим частоты кадров : Постоянный
Частота кадров : 30,000 кадров/сек
Цветовое пространство : YUV
Субдискретизация насыщенности : 4:2:0
Битовая глубина : 8 бит
Тип развёртки : Прогрессивная
Бит/(Пиксели*Кадры) : 0.006
Размер потока : 13,1 Мбайт (60%)
Библиотека кодирования : x264 core 148 r11 a01e339
Настройки программы : cabac=1 / ref=4 / deblock=1:0:0 / analyse=0x3:0x113 / me=umh / subme=8 / psy=1 / psy_rd=1.00:0.00 / mixed_ref=1 / me_range=16 / chroma_me=1 / trellis=1 / 8x8dct=1 / cqm=0 / deadzone=21,11 / fast_pskip=1 / chroma_qp_offset=-2 / threads=34 / lookahead_threads=5 / sliced_threads=0 / nr=0 / decimate=1 / interlaced=0 / bluray_compat=0 / stitchable=1 / constrained_intra=0 / bframes=3 / b_pyramid=2 / b_adapt=2 / b_bias=0 / direct=3 / weightb=1 / open_gop=0 / weightp=2 / keyint=infinite / keyint_min=30 / scenecut=40 / intra_refresh=0 / rc_lookahead=50 / rc=crf / mbtree=1 / crf=20.0 / qcomp=0.60 / qpmin=5 / qpmax=69 / qpstep=4 / vbv_maxrate=4950 / vbv_bufsize=13500 / crf_max=0.0 / nal_hrd=none / filler=0 / ip_ratio=1.40 / aq=1:1.00
Дата кодирования : UTC 2016-03-17 20:20:21
Дата пометки : UTC 2016-03-17 20:20:21
Цветовой диапазон : Limited
Основные цвета : BT.709
Характеристики трансфера : BT.709
Коэффициенты матрицы : BT.709
Аудио
Идентификатор : 2
Формат : AAC
Формат/Информация : Advanced Audio Codec
Профиль формата : LC
Идентификатор кодека : mp4a-40-2
Продолжительность : 5 м. 3 с.
Вид битрейта : Переменный
Битрейт : 235 Кбит/сек
Каналы : 2 канала
Расположение каналов : Front: L R
Частота : 48,0 КГц
Частота кадров : 46,875 кадров/сек (1024 SPF)
Метод сжатия : С потерями
Размер потока : 8,52 Мбайт (39%)
Дата кодирования : UTC 2016-03-17 20:20:21
Дата пометки : UTC 2016-03-17 20:20:21
Общее
Полное имя : .\Series\[JAVASCRIPT] Learn Vue 2.0 Step By Step\24-Shared-State-101.mp4
Формат : MPEG-4
Профиль формата : Base Media / Version 2
Идентификатор кодека : mp42 (mp42/mp41/isom/avc1)
Размер файла : 17,2 Мбайт
Продолжительность : 4 м. 28 с.
Режим общего битрейта : Переменный
Общий поток : 538 Кбит/сек
Дата кодирования : UTC 2017-01-06 20:52:31
Дата пометки : UTC 2017-01-06 20:52:31
Видео
Идентификатор : 1
Формат : AVC
Формат/Информация : Advanced Video Codec
Профиль формата : High@L4
Настройки формата : CABAC / 4 Ref Frames
Параметр CABAC формата : Да
Параметр RefFrames формата : 4 кадра
Параметр GOP формата : M=4, N=90
Идентификатор кодека : avc1
Идентификатор кодека/Информация : Advanced Video Coding
Продолжительность : 4 м. 28 с.
Битрейт : 300 Кбит/сек
Ширина : 1920 пикселей
Высота : 1080 пикселей
Соотношение сторон : 16:9
Режим частоты кадров : Постоянный
Частота кадров : 30,000 кадров/сек
Цветовое пространство : YUV
Субдискретизация насыщенности : 4:2:0
Битовая глубина : 8 бит
Тип развёртки : Прогрессивная
Бит/(Пиксели*Кадры) : 0.005
Размер потока : 9,55 Мбайт (55%)
Библиотека кодирования : x264 core 148 r10 b97ae06
Настройки программы : cabac=1 / ref=4 / deblock=1:0:0 / analyse=0x3:0x113 / me=hex / subme=8 / psy=1 / psy_rd=1.00:0.00 / mixed_ref=1 / me_range=16 / chroma_me=1 / trellis=2 / 8x8dct=1 / cqm=0 / deadzone=21,11 / fast_pskip=1 / chroma_qp_offset=-2 / threads=34 / lookahead_threads=5 / sliced_threads=0 / nr=0 / decimate=1 / interlaced=0 / bluray_compat=0 / stitchable=1 / constrained_intra=0 / bframes=3 / b_pyramid=2 / b_adapt=1 / b_bias=0 / direct=3 / weightb=1 / open_gop=0 / weightp=2 / keyint=infinite / keyint_min=30 / scenecut=40 / intra_refresh=0 / rc_lookahead=50 / rc=2pass / mbtree=1 / bitrate=300 / ratetol=1.0 / qcomp=0.60 / qpmin=5 / qpmax=69 / qpstep=4 / cplxblur=20.0 / qblur=0.5 / vbv_maxrate=4950 / vbv_bufsize=13500 / nal_hrd=none / filler=0 / ip_ratio=1.40 / aq=1:1.00
Дата кодирования : UTC 2017-01-06 20:52:31
Дата пометки : UTC 2017-01-06 20:52:31
Цветовой диапазон : Limited
Основные цвета : BT.709
Характеристики трансфера : BT.709
Коэффициенты матрицы : BT.709
Аудио
Идентификатор : 2
Формат : AAC
Формат/Информация : Advanced Audio Codec
Профиль формата : LC
Идентификатор кодека : mp4a-40-2
Продолжительность : 4 м. 28 с.
Вид битрейта : Переменный
Битрейт : 235 Кбит/сек
Каналы : 2 канала
Расположение каналов : Front: L R
Частота : 48,0 КГц
Частота кадров : 46,875 кадров/сек (1024 SPF)
Метод сжатия : С потерями
Размер потока : 7,54 Мбайт (44%)
Дата кодирования : UTC 2017-01-06 20:52:31
Дата пометки : UTC 2017-01-06 20:52:31
Общее
Полное имя : .\Series\[LARAVEL] [PHP] Advanced Eloquent\02 Use the Source, Luke.mp4
Формат : MPEG-4
Профиль формата : Base Media / Version 2
Идентификатор кодека : mp42 (mp42/mp41/isom/avc1)
Размер файла : 52,7 Мбайт
Продолжительность : 9 м. 23 с.
Режим общего битрейта : Переменный
Общий поток : 784 Кбит/сек
Название фильма : 2 Use The Source Luke
Альбом : Advanced Eloquent
Исполнитель : Laracasts
Жанр : screencast
Тип содержимого : Music
Дата кодирования : UTC 2015-03-04 21:44:13
Дата пометки : UTC 2015-04-21 19:18:30
Обложка : Yes
TVNetworkName : laracasts.com
LongDescription : Sure, you've learned the essentials of using Eloquent in your applications, but do you really understand what's going on under the hood? Well, that's specifically what we're interested in for this series. How do all the bits and pieces fit together? / laracasts / The best PHP screencasts on the web. Buy me lunch once a month, and I'll teach you everything about modern PHP workflow. / / https://laracasts.com/
ContentRating : mpaa|UNRATED|600|
Видео
Идентификатор : 1
Формат : AVC
Формат/Информация : Advanced Video Codec
Профиль формата : High@L5.1
Настройки формата : CABAC / 4 Ref Frames
Параметр CABAC формата : Да
Параметр RefFrames формата : 4 кадра
Идентификатор кодека : avc1
Идентификатор кодека/Информация : Advanced Video Coding
Продолжительность : 9 м. 23 с.
Битрейт : 545 Кбит/сек
Ширина : 2304 пикселя
Высота : 1440 пикселей
Соотношение сторон : 16:10
Режим частоты кадров : Постоянный
Частота кадров : 15,000 кадров/сек
Цветовое пространство : YUV
Субдискретизация насыщенности : 4:2:0
Битовая глубина : 8 бит
Тип развёртки : Прогрессивная
Бит/(Пиксели*Кадры) : 0.011
Размер потока : 36,6 Мбайт (70%)
Библиотека кодирования : x264 core 144 r11 40bb568
Настройки программы : cabac=1 / ref=3 / deblock=1:0:0 / analyse=0x3:0x113 / me=hex / subme=7 / psy=1 / psy_rd=1.00:0.00 / mixed_ref=1 / me_range=16 / chroma_me=1 / trellis=1 / 8x8dct=1 / cqm=0 / deadzone=21,11 / fast_pskip=1 / chroma_qp_offset=-2 / threads=48 / lookahead_threads=8 / sliced_threads=0 / nr=0 / decimate=1 / interlaced=0 / bluray_compat=0 / stitchable=1 / constrained_intra=0 / bframes=3 / b_pyramid=2 / b_adapt=1 / b_bias=0 / direct=1 / weightb=1 / open_gop=0 / weightp=2 / keyint=infinite / keyint_min=15 / scenecut=40 / intra_refresh=0 / rc_lookahead=40 / rc=crf / mbtree=1 / crf=20.0 / qcomp=0.60 / qpmin=5 / qpmax=69 / qpstep=4 / vbv_maxrate=13200 / vbv_bufsize=36000 / crf_max=0.0 / nal_hrd=none / filler=0 / ip_ratio=1.40 / aq=1:1.00
Дата кодирования : UTC 2015-03-04 21:44:13
Дата пометки : UTC 2015-03-04 21:44:13
Цветовой диапазон : Limited
Основные цвета : BT.709
Характеристики трансфера : BT.709
Коэффициенты матрицы : BT.709
Аудио
Идентификатор : 2
Формат : AAC
Формат/Информация : Advanced Audio Codec
Профиль формата : LC
Идентификатор кодека : mp4a-40-2
Продолжительность : 9 м. 23 с.
Вид битрейта : Переменный
Битрейт : 235 Кбит/сек
Каналы : 2 канала
Расположение каналов : Front: L R
Частота : 48,0 КГц
Частота кадров : 46,875 кадров/сек (1024 SPF)
Метод сжатия : С потерями
Размер потока : 15,8 Мбайт (30%)
Дата кодирования : UTC 2015-03-04 21:44:13
Дата пометки : UTC 2015-03-04 21:44:13

Дополнительная информация:

В раздаче имеются архивы! В них содержится исходники.

Содержание:

SKILL: Laravel
Laravel is a PHP framework for constructing everything from small to enterprise-level applications. As you'll find, it's a joy to use, and just might make you enjoy writing PHP again. It's that good.
Step1: Laravel 5.4 From Scratch
Step2: What's New in Laravel 5.1
Step3: What's New in Laravel 5.2
Step4: What's New in Laravel 5.3
Step5: What's New in Laravel 5.4
Step6: Intermediate Laravel
Step7: Advanced Eloquent
Step8: Discover Symfony Components
Step9: Eloquent Techniques
Step10: Laravel Authentication Techniques
Step11: Real-time Laravel with Socket.io
Step12: Incremental APIs
Step13: Testing Laravel
Step14: Server Management With Forge
Step15: Let's Build A Forum with Laravel and TDD
SKILL: PHP
While much of the development community is perfectly happy mocking PHP with the same tired insults, the reality is that the ecosystem has improved dramatically over the last half-decade. Today, PHP is a joy to use. Sure, it has its quirks, but so does every language. Level up your PHP chops with this Laracasts skill.
Step1: The PHP Practitioner
Step2: Object-Oriented Bootcamp
Step3: PHP 7 Up and Running
Step4: Simple Rules for Simpler Code
Step5: How to Build Command-Line Apps
Step6: Code Katas in PHP
Step7: Laravel 5.4 From Scratch
Step8: Discover Symfony Components
Step9: Incremental APIs
Step10: Advanced Eloquent
Step11: Whip Monstrous Code Into Shape
Step12: Design Patterns in PHP
Step13: SOLID Principles in PHP
SKILL: Testing
Testing is one of those practices that sounds incredibly simple, yet, in practice, it can take years to master. If there is such thing as a short-cut, working your way through skill will be your best bet.
Step1: Code Katas in PHP
Step2: Testing Laravel
Step3: Testing Jargon
Step4: Intuitive Integration Testing
Step5: The Lifecycle of a New Feature
Step6: Let's Build A Forum with Laravel and TDD
Step7: Testing Vue
SKILL: JavaScript
JavaScript: the language we love to hate. Luckily, though, the dark days of the early 2000s are long gone. Thanks to frameworks, like jQuery and Vue, and continued work on ECMAScript, the truth is that JavaScript isn't half-bad to use these days. It's almost - dare I say it - fun!
Step1: ES2015 Crash Course
Step2: Learning Vue 1.0: Step By Step
Step3: Learning Vue 2.0: Step By Step
Step4: Do You React?
Step5: Testing Vue
Step6: Charting and You
SKILL: Tooling
If you plan on spending a career writing software, then it makes sense to optimize your tooling and workflow processes, right? Whether using Sublime, or Git, and building up a server with Laravel Forge, tooling matters.
Step1: Sublime Text Mastery
Step2: Professional PHP Workflow in Sublime Text 3
Step3: Be Awesome in PHPStorm
Step4: Git Me Some Version Control
Step5: Server Management With Forge
Step6: Visual Studio Code for PHP Developers
Step7: Envoyer
Step8: Vim Mastery
Step9: Laravel Spark
Step10: Understand Regular Expressions
Step11: Setup a Mac Dev Machine From Scratch
Step12: Webpack for Everyone
Скриншоты:
Скачать .torrent

Для того, чтобы скачать торрент-файл

Laracasts - Skills (2014-2017)

с нашего сайта, Вам необходимо Войти на сайт под своим логином! Если у Вас ещё нет логина, тогда Вам нужно сначала Зарегистрироваться!

Как скачивать? · Что такое торрент? · Рейтинг и ограничения

Показать сообщения:    
Ответить на тему

Laracasts - Skills (2014-2017) скачать торрент (torrent), видеоуроки, тренинги, обучающее видео и видеокурсы

Текущее время: Сегодня 06:37

Часовой пояс: GMT + 4



Вы не можете начинать темы
Вы не можете отвечать на сообщения
Вы не можете редактировать свои сообщения
Вы не можете удалять свои сообщения
Вы не можете голосовать в опросах
Вы не можете прикреплять файлы к сообщениям
Вы не можете скачивать файлы