Алексей Довгуля - Студийная съемка установка освещения и виды света (2018)

Ответить на тему
 
Автор Сообщение

Yulya ®

Алексей Довгуля | Студийная съемка установка освещения и виды света (2018) CamRip [H.264/720p-LQ] - Автор (режиссер): Алексей Довгуля
Производство: liveclasses
Жанр: Фото, студийное фото
Описание:
Этот класс захватывает очень обширную тему работы со светом и осветительным оборудованием в студии, однако, в этой теме есть ключевые моменты, знание которых дает максимальную пользу. Мы сделали как раз такую выжимку, которая позволит вам начать работу как можно быстрее и эффективнее. Кроме базисных вещей, на этом классе мы разбираем специфику съемки с разным светом (рисующий, заполняющий, контровой и фоновый) и настраиваем оборудование с учетом предполагаемых световых схем.
Класс, как обычно, демонстрационный, обучение проводится в студии с реальным оборудованием и моделью.
Продолжительность: 01:08:11
Качество видео: CamRip
Видео: AVC/H.264, 1280x720, ~1343 Kbps
Аудио: AAC, 2 ch, 192 kbps

Mediainfo:

General
Complete name : E:\Алексей Довгуля - Студийная съемка установка освещения и виды света (2018)\01.Установка освещения.mp4
Format : MPEG-4
Format profile : Base Media
Codec ID : isom (isom/iso2/avc1/mp41)
File size : 75.1 MiB
Duration : 6 min 48 s
Overall bit rate : 1 544 kb/s
Writing application : Lavf57.71.100
Video
ID : 1
Format : AVC
Format/Info : Advanced Video Codec
Format profile : High@L3.1
Format settings, CABAC : Yes
Format settings, ReFrames : 4 frames
Codec ID : avc1
Codec ID/Info : Advanced Video Coding
Duration : 6 min 48 s
Bit rate : 1 343 kb/s
Width : 1 280 pixels
Height : 720 pixels
Display aspect ratio : 16:9
Frame rate mode : Constant
Frame rate : 25.000 FPS
Color space : YUV
Chroma subsampling : 4:2:0
Bit depth : 8 bits
Scan type : Progressive
Bits/(Pixel*Frame) : 0.058
Stream size : 65.3 MiB (87%)
Writing library : x264 core 146 r2555 0c21480
Encoding settings : cabac=1 / ref=3 / deblock=1:0:0 / analyse=0x3:0x133 / me=hex / subme=7 / psy=1 / psy_rd=1.00:0.00 / mixed_ref=1 / me_range=16 / chroma_me=1 / trellis=1 / 8x8dct=1 / cqm=0 / deadzone=21,11 / fast_pskip=1 / chroma_qp_offset=-2 / threads=6 / lookahead_threads=1 / sliced_threads=0 / nr=0 / decimate=1 / interlaced=0 / bluray_compat=0 / constrained_intra=0 / bframes=3 / b_pyramid=2 / b_adapt=1 / b_bias=0 / direct=1 / weightb=1 / open_gop=0 / weightp=2 / keyint=250 / keyint_min=25 / scenecut=40 / intra_refresh=0 / rc_lookahead=40 / rc=crf / mbtree=1 / crf=20.0 / qcomp=0.60 / qpmin=10 / qpmax=51 / qpstep=4 / ip_ratio=1.40 / aq=1:1.00
Audio
ID : 2
Format : AAC
Format/Info : Advanced Audio Codec
Format profile : LC
Codec ID : 40
Duration : 6 min 48 s
Bit rate mode : Constant
Bit rate : 192 kb/s
Channel(s) : 2 channels
Channel positions : Front: L R
Sampling rate : 48.0 kHz
Frame rate : 46.875 FPS (1024 spf)
Compression mode : Lossy
Stream size : 9.35 MiB (12%)
Language : unk
Default : Yes
Alternate group : 1
Скриншоты:
Скачать .torrent

Для того, чтобы скачать торрент-файл

Алексей Довгуля - Студийная съемка установка освещения и виды света (2018)

с нашего сайта, Вам необходимо Войти на сайт под своим логином! Если у Вас ещё нет логина, тогда Вам нужно сначала Зарегистрироваться!

Как скачивать? · Что такое торрент? · Рейтинг и ограничения

Показать сообщения:    
Ответить на тему

Алексей Довгуля - Студийная съемка установка освещения и виды света (2018) скачать торрент (torrent), видеоуроки, тренинги, обучающее видео и видеокурсы

Текущее время: Сегодня 22:00

Часовой пояс: GMT + 4



Вы не можете начинать темы
Вы не можете отвечать на сообщения
Вы не можете редактировать свои сообщения
Вы не можете удалять свои сообщения
Вы не можете голосовать в опросах
Вы не можете прикреплять файлы к сообщениям
Вы не можете скачивать файлы