Саро Микаелян - Lab 2.0: торговый робот с нуля до тысячи кубиков и больше (2017)

Ответить на тему
 
Автор Сообщение

Yulya ®

Саро Микаелян | TSLab 2.0: торговый робот с нуля до тысячи кубиков и больше (2017) PCRec - Автор (режиссер): Саро Микаелян
Жанр: Алготрейдинг
Описание:
TSLab 2.0 - это торговый терминал, в котором непрограммист может запрограммировать торгового робота. Робот может быть простым и работать по двум скользящим средним. А может быть сложным и совершать арбитражные операции на нескольких площадках.
Если в TSLab 2.0 все так просто, зачем нужен курс?
С кубиками тоже надо разобраться. Алгоритм можно сделать быстрым и эффективным, а можно нагородить огород. Курс научит пользоваться кубиками так, чтобы алгоритмы со свистом летали.Мы будем говорить про то, как применять возможности визуального редактора, чтобы создавать, тестировать и запускать торговых роботов. Вы изучите возможности каждого кубика, сможете связывать их между собой и строить алгоритмы из 1000 кубиков и больше. Предел только ваша фантазия.
Внимание:
В этом курсе мы не будем изучать опционную часть, которая есть в TSLab 2.0
Мы рассмотрим интерфейс программы, ее настройки и функциональные возможности. Вы начнете делать простые алгоритмы из скользящих средних и будете их постепенно усложнять. Вы научитесь создавать свои индикаторы. Вы сможете использовать программу, как торговый терминал.
Мы обязательно покажем, как тестировать и оптимизировать скрипты на исторических данных и проводить анализ результатов.
Продолжительность: 10:12:36
Качество видео: PCRec
Видео: AVC/H.264, 1880x920-1888x1052, ~361kbps
Аудио: AAC, 2 ch, 168kbps

Mediainfo:

General
Complete name : F:\Саро Микаелян TSLab 2.0\01.mp4
Format : MPEG-4
Format profile : Base Media
Codec ID : isom (isom/mp42)
File size : 330 MiB
Duration : 1 h 25 min
Overall bit rate mode : Variable
Overall bit rate : 537 kb/s
Encoded date : UTC 2017-08-27 11:37:37
Tagged date : UTC 2017-08-27 11:37:37
Writing application : BandiMp4Muxer 1.0
Video
ID : 1
Format : AVC
Format/Info : Advanced Video Codec
Format profile : Baseline@L4
Format settings, CABAC : No
Format settings, ReFrames : 1 frame
Codec ID : avc1
Codec ID/Info : Advanced Video Coding
Duration : 1 h 25 min
Bit rate : 362 kb/s
Width : 1 880 pixels
Height : 920 pixels
Display aspect ratio : 2.043
Frame rate mode : Variable
Frame rate : 27.562 FPS
Minimum frame rate : 14.993 FPS
Maximum frame rate : 30.030 FPS
Color space : YUV
Chroma subsampling : 4:2:0
Bit depth : 8 bits
Scan type : Progressive
Bits/(Pixel*Frame) : 0.008
Stream size : 222 MiB (67%)
Language : English
Encoded date : UTC 2017-08-27 11:37:37
Tagged date : UTC 2017-08-27 11:37:37
mdhd_Duration : 5156069
Audio
ID : 2
Format : AAC
Format/Info : Advanced Audio Codec
Format profile : LC
Codec ID : 40
Duration : 1 h 25 min
Source duration : 1 h 25 min
Source_Duration_FirstFrame : -11 ms
Bit rate mode : Variable
Bit rate : 169 kb/s
Channel(s) : 2 channels
Channel positions : Front: L R
Sampling rate : 48.0 kHz
Frame rate : 46.875 FPS (1024 spf)
Compression mode : Lossy
Stream size : 104 MiB (31%)
Source stream size : 104 MiB (31%)
Language : English
Encoded date : UTC 2017-08-27 11:37:37
Tagged date : UTC 2017-08-27 11:37:37
mdhd_Duration : 5156064
General
Complete name : F:\Саро Микаелян TSLab 2.0\02.mp4
Format : MPEG-4
Format profile : Base Media
Codec ID : isom (isom/mp42)
File size : 332 MiB
Duration : 1 h 22 min
Overall bit rate mode : Variable
Overall bit rate : 565 kb/s
Encoded date : UTC 2017-08-27 14:23:54
Tagged date : UTC 2017-08-27 14:23:54
Writing application : BandiMp4Muxer 1.0
Video
ID : 1
Format : AVC
Format/Info : Advanced Video Codec
Format profile : Baseline@L4
Format settings, CABAC : No
Format settings, ReFrames : 1 frame
Codec ID : avc1
Codec ID/Info : Advanced Video Coding
Duration : 1 h 22 min
Bit rate : 395 kb/s
Width : 1 880 pixels
Height : 920 pixels
Display aspect ratio : 2.043
Frame rate mode : Variable
Frame rate : 27.244 FPS
Minimum frame rate : 14.993 FPS
Maximum frame rate : 30.030 FPS
Color space : YUV
Chroma subsampling : 4:2:0
Bit depth : 8 bits
Scan type : Progressive
Bits/(Pixel*Frame) : 0.008
Stream size : 232 MiB (70%)
Language : English
Encoded date : UTC 2017-08-27 14:23:54
Tagged date : UTC 2017-08-27 14:23:54
mdhd_Duration : 4932103
Audio
ID : 2
Format : AAC
Format/Info : Advanced Audio Codec
Format profile : LC
Codec ID : 40
Duration : 1 h 22 min
Source duration : 1 h 22 min
Source_Duration_FirstFrame : -19 ms
Bit rate mode : Variable
Bit rate : 163 kb/s
Channel(s) : 2 channels
Channel positions : Front: L R
Sampling rate : 48.0 kHz
Frame rate : 46.875 FPS (1024 spf)
Compression mode : Lossy
Stream size : 95.9 MiB (29%)
Source stream size : 95.9 MiB (29%)
Language : English
Encoded date : UTC 2017-08-27 14:23:54
Tagged date : UTC 2017-08-27 14:23:54
mdhd_Duration : 4932120
General
Complete name : F:\Саро Микаелян TSLab 2.0\03.mp4
Format : MPEG-4
Format profile : Base Media
Codec ID : isom (isom/mp42)
File size : 410 MiB
Duration : 1 h 27 min
Overall bit rate mode : Variable
Overall bit rate : 654 kb/s
Encoded date : UTC 2017-08-27 17:37:38
Tagged date : UTC 2017-08-27 17:37:38
Writing application : BandiMp4Muxer 1.0
Video
ID : 1
Format : AVC
Format/Info : Advanced Video Codec
Format profile : Baseline@L4
Format settings, CABAC : No
Format settings, ReFrames : 1 frame
Codec ID : avc1
Codec ID/Info : Advanced Video Coding
Duration : 1 h 27 min
Bit rate : 484 kb/s
Width : 1 880 pixels
Height : 920 pixels
Display aspect ratio : 2.043
Frame rate mode : Variable
Frame rate : 27.104 FPS
Minimum frame rate : 14.993 FPS
Maximum frame rate : 30.030 FPS
Color space : YUV
Chroma subsampling : 4:2:0
Bit depth : 8 bits
Scan type : Progressive
Bits/(Pixel*Frame) : 0.010
Stream size : 303 MiB (74%)
Language : English
Encoded date : UTC 2017-08-27 17:37:38
Tagged date : UTC 2017-08-27 17:37:38
Audio
ID : 2
Format : AAC
Format/Info : Advanced Audio Codec
Format profile : LC
Codec ID : 40
Duration : 1 h 27 min
Source duration : 1 h 27 min
Source_Duration_FirstFrame : -7 ms
Bit rate mode : Variable
Channel(s) : 2 channels
Channel positions : Front: L R
Sampling rate : 48.0 kHz
Frame rate : 46.875 FPS (1024 spf)
Compression mode : Lossy
Source stream size : 103 MiB (25%)
Language : English
Encoded date : UTC 2017-08-27 17:37:38
Tagged date : UTC 2017-08-27 17:37:38
mdhd_Duration : 5257188
General
Complete name : F:\Саро Микаелян TSLab 2.0\04.mp4
Format : MPEG-4
Format profile : Base Media
Codec ID : isom (isom/iso2/avc1/mp41)
File size : 377 MiB
Duration : 40 min 10 s
Overall bit rate : 1 310 kb/s
Encoded date : UTC 2018-02-10 07:31:49
Tagged date : UTC 2018-02-10 07:31:49
Writing application : Lavf57.40.101
Video
ID : 2
Format : AVC
Format/Info : Advanced Video Codec
Format profile : Main@L4
Format settings, CABAC : Yes
Format settings, ReFrames : 1 frame
Format settings, GOP : M=1, N=25
Codec ID : avc1
Codec ID/Info : Advanced Video Coding
Duration : 40 min 10 s
Bit rate : 1 158 kb/s
Width : 1 888 pixels
Height : 1 052 pixels
Display aspect ratio : 16:9
Frame rate mode : Constant
Frame rate : 30.000 FPS
Color space : YUV
Chroma subsampling : 4:2:0
Bit depth : 8 bits
Scan type : Progressive
Bits/(Pixel*Frame) : 0.019
Stream size : 333 MiB (88%)
Encoded date : UTC 2018-02-10 07:31:49
Tagged date : UTC 2018-02-10 07:31:49
Audio
ID : 1
Format : AAC
Format/Info : Advanced Audio Codec
Format profile : LC
Codec ID : 40
Duration : 40 min 10 s
Bit rate mode : Constant
Bit rate : 144 kb/s
Channel(s) : 2 channels
Channel positions : Front: L R
Sampling rate : 44.1 kHz
Frame rate : 43.066 FPS (1024 spf)
Compression mode : Lossy
Stream size : 41.9 MiB (11%)
Default : Yes
Alternate group : 1
Encoded date : UTC 2018-02-10 07:31:49
Tagged date : UTC 2018-02-10 07:31:49
General
Complete name : F:\Саро Микаелян TSLab 2.0\05.mp4
Format : MPEG-4
Format profile : Base Media
Codec ID : isom (isom/iso2/avc1/mp41)
File size : 502 MiB
Duration : 45 min 44 s
Overall bit rate : 1 533 kb/s
Encoded date : UTC 2018-02-10 07:45:36
Tagged date : UTC 2018-02-10 07:45:36
Writing application : Lavf57.40.101
Video
ID : 2
Format : AVC
Format/Info : Advanced Video Codec
Format profile : Main@L4
Format settings, CABAC : Yes
Format settings, ReFrames : 1 frame
Format settings, GOP : M=1, N=25
Codec ID : avc1
Codec ID/Info : Advanced Video Coding
Duration : 45 min 44 s
Bit rate : 1 372 kb/s
Width : 1 888 pixels
Height : 1 052 pixels
Display aspect ratio : 16:9
Frame rate mode : Constant
Frame rate : 30.000 FPS
Color space : YUV
Chroma subsampling : 4:2:0
Bit depth : 8 bits
Scan type : Progressive
Bits/(Pixel*Frame) : 0.023
Stream size : 449 MiB (89%)
Encoded date : UTC 2018-02-10 07:45:36
Tagged date : UTC 2018-02-10 07:45:36
Audio
ID : 1
Format : AAC
Format/Info : Advanced Audio Codec
Format profile : LC
Codec ID : 40
Duration : 45 min 44 s
Bit rate mode : Constant
Bit rate : 155 kb/s
Channel(s) : 2 channels
Channel positions : Front: L R
Sampling rate : 44.1 kHz
Frame rate : 43.066 FPS (1024 spf)
Compression mode : Lossy
Stream size : 50.6 MiB (10%)
Default : Yes
Alternate group : 1
Encoded date : UTC 2018-02-10 07:45:36
Tagged date : UTC 2018-02-10 07:45:36
Скриншоты:
Скачать .torrent

Для того, чтобы скачать торрент-файл

Саро Микаелян - Lab 2.0: торговый робот с нуля до тысячи кубиков и больше (2017)

с нашего сайта, Вам необходимо Войти на сайт под своим логином! Если у Вас ещё нет логина, тогда Вам нужно сначала Зарегистрироваться!

Как скачивать? · Что такое торрент? · Рейтинг и ограничения

Показать сообщения:    
Ответить на тему

Саро Микаелян - Lab 2.0: торговый робот с нуля до тысячи кубиков и больше (2017) скачать торрент (torrent), видеоуроки, тренинги, обучающее видео и видеокурсы

Текущее время: Сегодня 06:58

Часовой пояс: GMT + 4



Вы не можете начинать темы
Вы не можете отвечать на сообщения
Вы не можете редактировать свои сообщения
Вы не можете удалять свои сообщения
Вы не можете голосовать в опросах
Вы не можете прикреплять файлы к сообщениям
Вы не можете скачивать файлы