Виктор Тарасов - Сборник курсов обучения по трейдингу и инвестициям (2016)

Ответить на тему
 
Автор Сообщение

Yulya ®

Виктор Тарасов | Сборник курсов обучения по трейдингу и инвестициям (2016) PCRec - Автор (режиссер): Виктор Тарасов
Жанр: Трейдинг,фондовый рынок, технический анализ
Описание:
Виктор Тарасов – профессиональный трейдер с 18-ти летним опытом работы (с 1997г.) на Фондовом рынке (акции, облигации, валюты).
Ну а теперь немного статистики :
1. выиграно 11 дуэлей из 11 !!!
2. ПЕРВЫЙ на официальном ресурсе Смарт Лаб !
3. ПЕРВЫЙ на официальном ресурсе Comon.ru !
4. Главное достижение!!! ВТОРОЙ на фондовом рынке ( кстати опять с самой лучшей эквити среди всех участников, как и в 2014 г. ) !!!
5. Уточняется пока - Пятый или Шестой — ( после проверки K2016 поймем) " Инвестор на всех рынках " ( в 2014 г. был 92, прогресс на лицо !!
6. Второй ( после победителя всего ЛЧИ pavel) на Кубке ЛЧИ на фондовом рынке ( но кстати победил павла в ПОЛУФИНАЛЕ -мелочь, а приятно !)
7. Улучшил свой результат почти в 2,5 раза !!
8. Третий ЛЧИ подряд показал достойный результат ( в 2012 г. Tank79, в 2014 г. Tank 79 и сейчас 2016 г. Виктор_Тарасов )
Спасибо, Господи, что помог мне собраться с силами и показать то, на что я реально способен !!!

Содержание курсов

1) Программа Базового курса:
- постулаты торговли;
- поведенческие мотивы невидимой руки рынка. Цели участников рынка;
- возможности торговли на бирже, инструменты;
- торговые каналы, выход и возврат в них;
- комбинации японских свечей;
- сочетание трендов для торговли;
- простые фигурки-паттерны;
- шкала риска, поведение толпы;
- фиксация прибыли (целевая и ап-фиксинг);
- реакция цен на СиПи 500, нефть и фьючерс, причины и размер гэпов и Харами;
- определение объема торговли через стопы;
- пирамидинг и усреднение, поведение толпы и трейдеров;
- тест «трейдер ты или инвестор», уверенность трейдера;
- дневник трейдера;
- мониторинг рынка (плюсы учебных убытков).
2) Программа Продвинутого курса:
Часть 1:
-Идея гвоздика и общая теория шипа
-Определение моментов локальных разворотов
-Концентрация и борьба за уровни
-Уровни поддержки и сопротивления, их смысл и использование в торговле
-Сетка Фибо и ее смысл
-Смысл поведения толпы
-Характер действий "невидимой руки"
-Возможности уровней Фибо
-Средневзвешенные скользящие средние (EMA) и планки EMA
-Как открывают и защищают позиции
-Как меняются приоритеты участников
-Как долго держать позицию и не терять прибыль
-Фиксация прибыли
-Заказ на "неликвидах"
-Перенос позиции
-Четыре варианта утренних гепов
-Поведение рынка в начале торгов и ответный действия трейдера
-Универсальная синтетика и ее понимание
-Импульс формата "3D"
Часть 2:
"Антифигура и матрешка"
-Принципы торговли больших и малых конструкций
-Приоритетность формирования краткосрочных и среднесрочных моделей и их временная значимость
-Совпадение и расхождение этих моделей
-Поведение трейдера в зависимости от ситуации
-Схема ралли
-Ведение позиции по 4-м часовым идеям на примере интрадея
-Понимание, как складываются цены в дни агрессивной торговли и экстраполяция на большие временные масштабы
-Понимание природы возникновения таких ситуаций, и какие часовые идеи в результате получаются, а также того, как забирать значимую часть хода рынка
-Идеи реверса
-4 варианта гепа
-4 случая предторговки
-Когда выгодно заходить в позицию до открытия основной сессии
-Как заработать на развороте локального движения
-Основы личных финансов
-Риск-доходность возможностей, которые предоставляют брокера
-Минимизация стоп-лосса и нормаксимизация прибыли
-Основные ошибки тредера, и как их избежать
-Сочетание системы и интрадея
-Системные знания в сочетании с простыми особенностями внутридневной торговли
часть 3:
-День первый День 1
12 декабря, начало в 19:00 по Москве или в 18:00 по вашему времени, продолжительность — 2 ч.
Заказ на неликвидах
Фигуры продолжения , 2 перерисовки
Фигуры разворота (ГиП, двойная вершина, шипы)
Система баскеров (ложных сигналов)
Антифигура и матрешка, принципы торговли больших и малых конструкций
-День второй День 2
14 декабря, начало в 19:00 по Москве или в 18:00 по вашему времени, продолжительность — 2 ч.
Широкодиапазонный торговый день
Схема ралли по 4 часовым идеям
Идеи реверса по 4 вариантам гепа
4 случая предторговки, ожидаемый и неожиданный форс-мажор
Минимизация стоп лосса и нормаксимизация прибыли
-День третий День 3
16 декабря, начало в 19:00 по Москве или в 18:00 по вашему времени, продолжительность — 2 ч.
Сочетания преимуществ системы и интрадея
Основы личных финансов
Становление доверительного управляющего
Итоги ЛЧИ 2016 г.
-Ежемесячные обзоры рынка за ноябрь 2016 и февраль 2017
3) Вебинар по личным инвестициям в высокорисковые проекты.
Продолжительность: 10:17:06
Качество видео: PCRec
Видео: AVC/H.264, 1604x760, ~89kbps
Аудио: AAC, 2 ch, 53kbps

Mediainfo:

Video: MPEG4 Video (H264) 1604x760 10fps 89kbps [V: Video Media Handler [eng] (h264 high L3.2, yuv420p, 1604x760, 89 kb/s)]
Audio: AAC 44100Hz stereo 53kbps [A: Sound Media Handler [eng] (aac lc, 44100 Hz, stereo, 53 kb/s)]
Format : MPEG-4
Format profile : Base Media / Version 2
Codec ID : mp42 (M4V /mp42/isom)
File size : 127 MiB
Duration : 2 h 2 min
Overall bit rate : 145 kb/s
Encoded date : UTC 2016-06-02 20:24:30
Tagged date : UTC 2016-06-02 20:24:30
Video
ID : 1
Format : AVC
Format/Info : Advanced Video Codec
Format profile : High@L3.2
Format settings, CABAC : Yes
Format settings, ReFrames : 4 frames
Format settings, GOP : M=1, N=50
Codec ID : avc1
Codec ID/Info : Advanced Video Coding
Duration : 2 h 2 min
Source duration : 2 h 2 min
Bit rate : 89.6 kb/s
Width : 1 604 pixels
Height : 760 pixels
Display aspect ratio : 2.111
Frame rate mode : Constant
Frame rate : 10.000 FPS
Color space : YUV
Chroma subsampling : 4:2:0
Bit depth : 8 bits
Scan type : Progressive
Bits/(Pixel*Frame) : 0.007
Stream size : 78.7 MiB (62%)
Source stream size : 78.7 MiB (62%)
Language : English
Encoded date : UTC 2016-06-02 20:24:30
Tagged date : UTC 2016-06-02 20:24:30
Color range : Limited
Color primaries : BT.709
Transfer characteristics : BT.709
Matrix coefficients : BT.709
mdhd_Duration : 7375044
Audio
ID : 2
Format : AAC
Format/Info : Advanced Audio Codec
Format profile : LC
Codec ID : 40
Duration : 2 h 2 min
Source duration : 2 h 2 min
Bit rate mode : Constant
Bit rate : 53.4 kb/s
Channel(s) : 2 channels
Channel positions : Front: L R
Sampling rate : 44.1 kHz
Frame rate : 43.066 FPS (1024 spf)
Compression mode : Lossy
Stream size : 47.1 MiB (37%)
Source stream size : 47.1 MiB (37%)
Language : English
Encoded date : UTC 2016-06-02 20:24:30
Tagged date : UTC 2016-06-02 20:24:30
mdhd_Duration : 7396829
Скриншоты:
Скачать .torrent

Для того, чтобы скачать торрент-файл

Виктор Тарасов - Сборник курсов обучения по трейдингу и инвестициям (2016)

с нашего сайта, Вам необходимо Войти на сайт под своим логином! Если у Вас ещё нет логина, тогда Вам нужно сначала Зарегистрироваться!

Как скачивать? · Что такое торрент? · Рейтинг и ограничения

Показать сообщения:    
Ответить на тему

Виктор Тарасов - Сборник курсов обучения по трейдингу и инвестициям (2016) скачать торрент (torrent), видеоуроки, тренинги, обучающее видео и видеокурсы

Текущее время: Сегодня 03:11

Часовой пояс: GMT + 4



Вы не можете начинать темы
Вы не можете отвечать на сообщения
Вы не можете редактировать свои сообщения
Вы не можете удалять свои сообщения
Вы не можете голосовать в опросах
Вы не можете прикреплять файлы к сообщениям
Вы не можете скачивать файлы