Алексей Всемирнов - Опционы 1.0 - 2.0 - 3.0 (2016)

Ответить на тему
 
Автор Сообщение

Yulya ®

Алексей Всемирнов | Опционы 1.0 - 2.0 - 3.0 (2016) PCRec - Автор (режиссер): Алексей Всемирнов
Жанр: Трейдинг,опционные контракты
Описание:
Если Вы уже познали все тонкости работы с акциями и фьючерсами, если Вы готовы окунуться в мир нелинейной торговли и начать применять новые инструменты на практике, то Курсы «Опционы 1.0-2.0-3.0», которые читает профессионал своего дела и опытный преподаватель Алексей Всемирнов, станет для Вас новой ступенью на пути к освоению опционов и долгосрочной стабильной работе на финансовых рынках.

Содержание:

Опционы 1.0
22, 25, 26 и 29 февраля 2016 года
курс вебинаров с Алексеем Всемирновым
Если Вы уже познали все тонкости работы с акциями и фьючерсами, если Вы готовы окунуться в мир нелинейной торговли и начать применять новые инструменты на практике, то Курс «Опционы 1.0», который читает профессионал своего дела и опытный преподаватель Алексей Всемирнов, станет для Вас первой ступенью на пути к освоению опционов и долгосрочной стабильной работе на финансовых рынках.
Опционы 2.0
1, 2, 3 и 4 марта 2016 года
курс вебинаров с Алексеем Всемирновым
Разобрались с Коллами и Путами? Освоили «бабочки«, «кондоры» и «стрэнглы»? Готовы перейти на новый уровень?
Тогда авторский курс Алексея Всемирнова «Опционы 2.0» — это то, что Вам нужно. В данном курсе без утайки будет рассказано о всех секретах опционной торговли, о приемах, которые используют профессионалы этого жанра, а также все про улыбки и ухмылки волатильности, арбитраж на опционах и маркет-мейкинг.
Опционы 3.0
3.1.:
Занятие 1.
1. Дрейф по улыбке волатильности и его нивелирование.
2. Риск по волатильности и его компенсация.
Занятие 2.
1.Хеджирование риска волатильности с помощью контракта на индекс волатильности.
Ухмылка индекса и входящих в него акций.
Программа курса 3.2.:
Занятие 1.
1.Стратегия «бабочка» и ее дрейф по «улыбке».
Занятие 2.
1.Опционный арбитраж.
Арбитраж индекса доллара, как нелинейной конструкции.
Продолжительность: 20:45:08
Качество видео: PCRec
Видео: AVC/H.264, 1280x510, ~127kbps
Аудио: AAC, 2 ch, 125kbps

Mediainfo:

Video: MPEG4 Video (H264) 1280x510 30fps 127kbps [V: Mainconcept MP4 Video Media Handler [eng] (h264 main L3.1, yuv420p, 1280x510, 127 kb/s)]
Audio: AAC 44100Hz stereo 125kbps [A: Mainconcept MP4 Sound Media Handler [eng] (aac lc, 44100 Hz, stereo, 125 kb/s)]
Format : MPEG-4
Format profile : Base Media / Version 2
Codec ID : mp42 (isom/mp42)
File size : 205 MiB
Duration : 1 h 52 min
Overall bit rate mode : Variable
Overall bit rate : 256 kb/s
Encoded date : UTC 2016-03-01 15:45:12
Tagged date : UTC 2016-03-01 15:45:12
Video
ID : 1
Format : AVC
Format/Info : Advanced Video Codec
Format profile : Main@L3.1
Format settings, CABAC : Yes
Format settings, ReFrames : 3 frames
Codec ID : avc1
Codec ID/Info : Advanced Video Coding
Duration : 1 h 52 min
Bit rate : 128 kb/s
Width : 1 280 pixels
Height : 510 pixels
Display aspect ratio : 2.510
Frame rate mode : Constant
Frame rate : 30.000 FPS
Standard : NTSC
Color space : YUV
Chroma subsampling : 4:2:0
Bit depth : 8 bits
Scan type : Progressive
Bits/(Pixel*Frame) : 0.007
Stream size : 102 MiB (50%)
Language : English
Encoded date : UTC 2016-03-01 15:45:13
Tagged date : UTC 2016-03-01 15:45:13
Color range : Limited
Audio
ID : 2
Format : AAC
Format/Info : Advanced Audio Codec
Format profile : LC
Codec ID : 40
Duration : 1 h 52 min
Bit rate mode : Variable
Bit rate : 126 kb/s
Maximum bit rate : 259 kb/s
Channel(s) : 2 channels
Channel positions : Front: L R
Sampling rate : 44.1 kHz
Frame rate : 43.066 FPS (1024 spf)
Compression mode : Lossy
Stream size : 101 MiB (49%)
Language : English
Encoded date : UTC 2016-03-01 15:45:13
Tagged date : UTC 2016-03-01 15:45:13
Скриншоты:
Скачать .torrent

Для того, чтобы скачать торрент-файл

Алексей Всемирнов - Опционы 1.0 - 2.0 - 3.0 (2016)

с нашего сайта, Вам необходимо Войти на сайт под своим логином! Если у Вас ещё нет логина, тогда Вам нужно сначала Зарегистрироваться!

Как скачивать? · Что такое торрент? · Рейтинг и ограничения

Показать сообщения:    
Ответить на тему

Алексей Всемирнов - Опционы 1.0 - 2.0 - 3.0 (2016) скачать торрент (torrent), видеоуроки, тренинги, обучающее видео и видеокурсы

Текущее время: Сегодня 00:43

Часовой пояс: GMT + 4



Вы не можете начинать темы
Вы не можете отвечать на сообщения
Вы не можете редактировать свои сообщения
Вы не можете удалять свои сообщения
Вы не можете голосовать в опросах
Вы не можете прикреплять файлы к сообщениям
Вы не можете скачивать файлы