V-Stock - Торговля опционами (2015)

Ответить на тему
 
Автор Сообщение

Yulya ®

V-Stock | Торговля опционами (2015) PCRec - Автор (режиссер): V-Stock
Жанр: Трейдинг,опционные контракты
Описание:
Сообщество трейдеров V-Stock занимается обучением построению и управлению опционными позициями. Многие трейдеры совершали различные операции с акциями, пытались спекулировать на фьючерсах, гораздо реже с облигациями и очень часто мы слышали, что боятся даже подступиться к опционам, а зря. Помимо того, то этот инструмент помогает страховать позиции гораздо эффективнее стоп-приказов, они так же являются инструментами заработка при любом движении рынка, хоть в верх, хоть вниз, или наоборот, генерируют доход в случае отсутствия движения. Причем, в отличие от тех же самых фьючерсов, требует меньшего времени на контроль за позицией, хотя любую позицию контролировать и планировать просто обязательно.
Всего после 8 занятий вы будете себя уверенно чувствовать в таких вопросах как: составление и сложение графиков прибыльности опционов; построение конструкций опционов: преимущества, способы минимизации недостатков; опционы в опционном аналитике, Quik. Вы научитесь успешно управлять позициями опционов, грамотно переходить между ними, выполнять хеджирование и роллирование. Познаете все тонкости составления позиций на опционах с различными сроками экспирации, поймете суть огромных цен и научитесь распознавать следы крупных денег. Нюансы настройки терминала, понятия стредлов, стенглов, стрэпов, а также поведение путов и коллов, перестанут быть для вас чем-то неведомым и пугающим.
Продолжительность: 15:43:40
Качество видео: PCRec
Видео: AVC/H.264, 1280x720, ~698kbps
Аудио: AAC, 2 ch, 143kbps

Mediainfo:

Format                         : MPEG-4
Format profile : Base Media / Version 2
Codec ID : mp42 (isom/mp42)
File size : 580 MiB
Duration : 1 h 35 min
Overall bit rate mode : Variable
Overall bit rate : 845 kb/s
Encoded date : UTC 2015-08-15 19:57:43
Tagged date : UTC 2015-08-15 19:57:43
gsst : 0
gstd : 5757990
gssd : B251299C4MM1444113187008680
gshh : r1---sn-nxu-nufe.googlevideo.com
Video
ID : 1
Format : AVC
Format/Info : Advanced Video Codec
Format profile : High@L3.1
Format settings, CABAC : Yes
Format settings, ReFrames : 1 frame
Format settings, GOP : M=1, N=60
Codec ID : avc1
Codec ID/Info : Advanced Video Coding
Duration : 1 h 35 min
Bit rate : 699 kb/s
Maximum bit rate : 10.3 Mb/s
Width : 1 280 pixels
Height : 720 pixels
Display aspect ratio : 16:9
Frame rate mode : Constant
Frame rate : 15.000 FPS
Color space : YUV
Chroma subsampling : 4:2:0
Bit depth : 8 bits
Scan type : Progressive
Bits/(Pixel*Frame) : 0.051
Stream size : 480 MiB (83%)
Tagged date : UTC 2015-08-15 20:00:44
Audio
ID : 2
Format : AAC
Format/Info : Advanced Audio Codec
Format profile : LC
Codec ID : 40
Duration : 1 h 35 min
Bit rate mode : Variable
Bit rate : 144 kb/s
Maximum bit rate : 150 kb/s
Channel(s) : 1 channel
Channel positions : Front: C
Sampling rate : 44.1 kHz
Frame rate : 43.066 FPS (1024 spf)
Compression mode : Lossy
Stream size : 98.8 MiB (17%)
Title : IsoMedia File Produced by Google, 5-11-2011
Encoded date : UTC 2015-08-15 19:59:23
Tagged date : UTC 2015-08-15 20:00:44
Video: MPEG4 Video (H264) 1280x720 15fps 698kbps [V: h264 high L3.1, yuv420p, 1280x720, 698 kb/s]
Audio: AAC 44100Hz mono 143kbps [A: IsoMedia File Produced by Google, 5-11-2011 (aac lc, 44100 Hz, mono, 143 kb/s)]
Скриншоты:
Скачать .torrent

Для того, чтобы скачать торрент-файл

V-Stock - Торговля опционами (2015)

с нашего сайта, Вам необходимо Войти на сайт под своим логином! Если у Вас ещё нет логина, тогда Вам нужно сначала Зарегистрироваться!

Как скачивать? · Что такое торрент? · Рейтинг и ограничения

Показать сообщения:    
Ответить на тему

V-Stock - Торговля опционами (2015) скачать торрент (torrent), видеоуроки, тренинги, обучающее видео и видеокурсы

Текущее время: Сегодня 00:42

Часовой пояс: GMT + 4



Вы не можете начинать темы
Вы не можете отвечать на сообщения
Вы не можете редактировать свои сообщения
Вы не можете удалять свои сообщения
Вы не можете голосовать в опросах
Вы не можете прикреплять файлы к сообщениям
Вы не можете скачивать файлы